Loading...
Error

Скачать Женщина в красном / The Woman in Red (Джин Уайлдер) [1984, мелодрама, комедия, BDRip-AVC] [MVO]x2+[AVO]x2+[Оригинал Eng]+[Sub Eng] торрент без регистрации

Статистика раздачи
Размер:  2,81 GB   |    Скачан:  22 раза
Сидов:  3  [  0 KB/s  ]  
 
 
 
Автор Сообщение

Marsianka

[] 

Информация о фильме
Название: Женщина в красном
Оригинальное название: The Woman in Red
Год выпуска: 1984
Страна: США
Жанр: мелодрама, комедия
Перевод: Профессиональный (многоголосый закадровый), авторский (одноголосый закадровый)
Субтитры: английские (full)
Продолжительность: 01:26:36
Режиссер: Джин Уайлдер
В ролях:

Джин Уайлдер, Чарльз Гродин, Джозеф Болонья, Джудит Айви, Майкл Хаддлстон, Келли ЛеБрок, Гилда Рэднер, Кайл Т. Хеффнер (Richard), Майкл Зорек (Shelly), Билли Бек (Bartender), Кира Стемпел (Missy Pierce), Робин Игнико (Becky Pierce)
Описание:
Однажды Тедди оказывается в одних трусах на карнизе за окном спальни красотки, и все это снимает телевидение. Как он оказался в этой нелепой ситуации? Всему виной сногсшибательная красавица Шарлотта, женщина в красном платье. У Тедди Пирса, есть все что нужно для счастливой жизни - милая жена, дети, хорошая работа, друзья.
Рейтинг:

MPAA: PG-13 - Детям до 13 лет просмотр не желателен
Качество: BDRip-AVC
Формат: MKV
Видео: AVC, 1024x556 (1.85:1), 3678 kbps, 23,976 fps, 0,269 bpp
Аудио №1: русский / AC3 / 2.0 / 48 kHz / 192 kbps / MVO / СТС
Аудио №2: русский / AC3 / 2.0 / 48 kHz / 192 kbps / MVO / Екатеринбург Арт
Аудио №3: русский / AC3 / 2.0 / 48 kHz / 192 kbps / AVO / А. Михалев
Аудио №4: русский / AC3 / 2.0 / 48 kHz / 192 kbps / AVO / Л. Володарский
Аудио №5: английский / AC3 / 2.0 / 48 kHz / 192 kbps / Оригинал
Навигация по главам: есть

Релиз от:

General
Unique ID : 235214726979810655238264255883955173344 (0xB0F4B567254CF16887EEF0C5E94C77E0)
Complete name : D:downloadThe Woman in Red.1984.BDRip-AVC by schultz R.G.Resident.mkv
Format : Matroska
Format version : Version 4 / Version 2
File size : 2.81 GiB
Duration : 1 h 26 min
Overall bit rate : 4 640 kb/s
Encoded date : UTC 2018-02-11 12:58:02
Writing application : mkvmerge v8.9.0 ('Father Daughter') 64bit
Writing library : libebml v1.3.3 + libmatroska v1.4.4

Video
ID : 1
Format : AVC
Format/Info : Advanced Video Codec
Format profile : High@L4.1
Format settings, CABAC : Yes
Format settings, ReFrames : 10 frames
Codec ID : V_MPEG4/ISO/AVC
Duration : 1 h 26 min
Bit rate : 3 678 kb/s
Width : 1 024 pixels
Height : 556 pixels
Display aspect ratio : 1.85:1
Frame rate mode : Constant
Frame rate : 23.976 FPS
Color space : YUV
Chroma subsampling : 4:2:0
Bit depth : 8 bits
Scan type : Progressive
Bits/(Pixel*Frame) : 0.269
Stream size : 2.22 GiB (79%)
Writing library : x264 core 146 r2538 121396c
Encoding settings : cabac=1 / ref=10 / deblock=1:-3:-3 / analyse=0x3:0 / me=umh / subme=11 / psy=1 / psy_rd=1.00:0.00 / mixed_ref=1 / me_range=32 / chroma_me=1 / trellis=2 / 8x8dct=1 / cqm=0 / deadzone=21,11 / fast_pskip=0 / chroma_qp_offset=-2 / threads=12 / lookahead_threads=3 / sliced_threads=0 / nr=0 / decimate=0 / interlaced=0 / bluray_compat=0 / constrained_intra=0 / bframes=12 / b_pyramid=2 / b_adapt=2 / b_bias=0 / direct=3 / weightb=1 / open_gop=0 / weightp=2 / keyint=240 / keyint_min=23 / scenecut=40 / intra_refresh=0 / rc_lookahead=40 / rc=2pass / mbtree=0 / bitrate=3678 / ratetol=1.0 / qcomp=0.60 / qpmin=0 / qpmax=69 / qpstep=4 / cplxblur=20.0 / qblur=0.5 / vbv_maxrate=50000 / vbv_bufsize=62500 / nal_hrd=none / filler=0 / ip_ratio=1.40 / pb_ratio=1.30 / aq=1:1.00
Language : English
Default : Yes
Forced : No

Audio #1
ID : 2
Format : AC-3
Format/Info : Audio Coding 3
Mode extension : CM (complete main)
Format settings, Endianness : Big
Codec ID : A_AC3
Duration : 1 h 26 min
Bit rate mode : Constant
Bit rate : 192 kb/s
Channel(s) : 2 channels
Channel positions : Front: L R
Sampling rate : 48.0 kHz
Frame rate : 31.250 FPS (1536 spf)
Compression mode : Lossy
Stream size : 119 MiB (4%)
Title : MVO [СТС]
Language : Russian
Default : Yes
Forced : No

Audio #2
ID : 3
Format : AC-3
Format/Info : Audio Coding 3
Mode extension : CM (complete main)
Format settings, Endianness : Big
Codec ID : A_AC3
Duration : 1 h 26 min
Bit rate mode : Constant
Bit rate : 192 kb/s
Channel(s) : 2 channels
Channel positions : Front: L R
Sampling rate : 48.0 kHz
Frame rate : 31.250 FPS (1536 spf)
Compression mode : Lossy
Stream size : 119 MiB (4%)
Title : MVO [Екатеринбург Арт]
Language : Russian
Default : No
Forced : No

Audio #3
ID : 4
Format : AC-3
Format/Info : Audio Coding 3
Mode extension : CM (complete main)
Format settings, Endianness : Big
Codec ID : A_AC3
Duration : 1 h 26 min
Bit rate mode : Constant
Bit rate : 192 kb/s
Channel(s) : 2 channels
Channel positions : Front: L R
Sampling rate : 48.0 kHz
Frame rate : 31.250 FPS (1536 spf)
Compression mode : Lossy
Stream size : 119 MiB (4%)
Title : AVO [А. Михалев]
Language : Russian
Default : No
Forced : No

Audio #4
ID : 5
Format : AC-3
Format/Info : Audio Coding 3
Mode extension : CM (complete main)
Format settings, Endianness : Big
Codec ID : A_AC3
Duration : 1 h 26 min
Bit rate mode : Constant
Bit rate : 192 kb/s
Channel(s) : 2 channels
Channel positions : Front: L R
Sampling rate : 48.0 kHz
Frame rate : 31.250 FPS (1536 spf)
Compression mode : Lossy
Stream size : 119 MiB (4%)
Title : AVO [Л. Володарский]
Language : Russian
Default : No
Forced : No

Audio #5
ID : 6
Format : AC-3
Format/Info : Audio Coding 3
Mode extension : CM (complete main)
Format settings, Endianness : Big
Codec ID : A_AC3
Duration : 1 h 26 min
Bit rate mode : Constant
Bit rate : 192 kb/s
Channel(s) : 2 channels
Channel positions : Front: L R
Sampling rate : 48.0 kHz
Frame rate : 31.250 FPS (1536 spf)
Compression mode : Lossy
Stream size : 119 MiB (4%)
Title : Оригинал
Language : English
Default : No
Forced : No

Text
ID : 7
Format : UTF-8
Codec ID : S_TEXT/UTF8
Codec ID/Info : UTF-8 Plain Text
Duration : 1 h 21 min
Bit rate : 56 b/s
Count of elements : 1042
Stream size : 33.4 KiB (0%)
Title : full
Language : English
Default : No
Forced : No

Menu
00:00:00.000 : en:Chapter 1
00:09:06.297 : en:Chapter 2
00:16:53.388 : en:Chapter 3
00:29:37.068 : en:Chapter 4
00:42:47.065 : en:Chapter 5
00:55:38.378 : en:Chapter 6
01:03:32.268 : en:Chapter 7
01:12:11.078 : en:Chapter 8



Скачать Женщина.в.красном.The.Woman.in.Red.(Джин.Уайлдер).[1984.мелодрама.комедия.BDRip-AVC].[MVO]x2+[AVO]x2+[Оригинал.Eng]+[Sub.Eng].torrent без регистрации
Золото ЗОЛОТАЯ РАЗДАЧА! СКАЧАННОЕ НЕ ЗАСЧИТЫВАЕТСЯ! Золото
Дата: Зарегистрирован   [ Тип: внешний ] Как тут cкачать?
MAGNET ссылка
MAGNET ссылка


Скачать .torrent

15 KB

Статус: проверено DHT
Скачан: торрент - 22 раз, раздача полностью - 15 раз
Размер: 2,81 GB
Оценка:  - (Голосов: 0)
Поблагодарили: 0
Поделиться ссылкой на эту раздачу с друзьями:
В контактеFacebookОдноклассникиTwitterLivejournalМой МирLiveinternet
 

 
Показать сообщения:    


Вы не можете начинать темы
Вы не можете отвечать на сообщения
Вы не можете редактировать свои сообщения
Вы не можете удалять свои сообщения
Вы не можете голосовать в опросах
Вы не можете прикреплять файлы к сообщениям
Вы можете скачивать файлы