Loading...
Error

Скачать Медвежатник / The Score (Фрэнк Оз) [2001, боевик, комедия, криминал, BDRip] [720p] [MVO]+[Оригинал Eng]+[Sub Rus, Eng]x2 торрент без регистрации

Статистика раздачи
Размер:  5,75 GB   |    Скачан:  20 раз
Сидов:  6  [  0 KB/s  ]  
 
 
 
Автор Сообщение

Marsianka

[] 

Информация о фильме
Русское название: Медвежатник
Оригинальное название: The Score
Год выхода: 2001
Жанр: боевик, комедия, криминал
Режиссер: Фрэнк Оз
Выпущено: США, Германия
Продолжительность: 02:04:01
Перевод: Профессиональный (многоголосый, закадровый)
В ролях: Роберт Де Ниро, Эдвард Нортон, Марлон Брандо, Анджела Бассетт, Гэри Фармер, Пол Соулз, Джэми Харольд, Серж Уд, Жан-Рене Уэлле, Мартин Дрэнвиль

Описание
Ник Уэллс — профессиональный взломщик сейфов. Он хочет порвать с криминальным прошлым, но его старый партнёр по нелегальному бизнесу Макс вынуждает его приступить к подготовке нового преступления. На этот раз целью злоумышленников становится скипетр французской королевской династии Бурбонов.



Файл
Качество: BDRip 720p (исходник Blu-ray Disc)
Контейнер: MKV (расширение файла)
Видео: 1280x546, 5364 Кбит/сек, 23,976 кадр/сек, AVC, x264, High@L4.1, 2.35:1, 0.320 Бит/[Пиксели*Кадры]
Аудио 1: AC-3, 640 Кбит/сек, 6 канала(ов), 48,0 КГц - Многоголосый закадровый, Позитив-Мультимедиа / Русский
Аудио 2: AC-3, 640 Кбит/сек, 6 канала(ов), 48,0 КГц - Оригинал / Английский
Субтитры: Русские | Полные, Английские | Полные
Форсированные субтитры: Нет
Чаптеры (Главы): Есть
Автор Рипа: Группа:

Format : Matroska
Format version : Version 2
File size : 5.75 GiB
Duration : 2 h 4 min
Overall bit rate : 6 643 kb/s
Movie name : The Score.(2001).BDRip.720p.[envy]
Encoded date : UTC 2018-02-05 17:04:01
Writing application : mkvmerge v5.8.0 ('No Sleep / Pillow') built on Sep 2 2012 15:37:04
Writing library : libebml v1.2.3 + libmatroska v1.3.0

Video
ID : 1
Format : AVC
Format/Info : Advanced Video Codec
Format profile : High@L4.1
Format settings : CABAC / 10 Ref Frames
Format settings, CABAC : Yes
Format settings, ReFrames : 10 frames
Codec ID : V_MPEG4/ISO/AVC
Duration : 2 h 4 min
Bit rate : 5 364 kb/s
Width : 1 280 pixels
Height : 546 pixels
Display aspect ratio : 2.35:1
Frame rate mode : Constant
Frame rate : 23.976 (24000/1001) FPS
Color space : YUV
Chroma subsampling : 4:2:0
Bit depth : 8 bits
Scan type : Progressive
Bits/(Pixel*Frame) : 0.320
Stream size : 4.53 GiB (79%)
Title : The Score.(2001).BDRip.720p.[envy]
Writing library : x264 core 152 r2851 ba24899
Encoding settings : cabac=1 / ref=10 / deblock=1:-3:-3 / analyse=0x3:0x113 / me=umh / subme=11 / psy=1 / psy_rd=1.00:0.10 / mixed_ref=1 / me_range=32 / chroma_me=1 / trellis=2 / 8x8dct=1 / cqm=0 / deadzone=21,11 / fast_pskip=0 / chroma_qp_offset=-3 / threads=12 / lookahead_threads=1 / sliced_threads=0 / nr=0 / decimate=1 / interlaced=0 / bluray_compat=0 / constrained_intra=0 / bframes=5 / b_pyramid=2 / b_adapt=2 / b_bias=0 / direct=3 / weightb=1 / open_gop=0 / weightp=2 / keyint=240 / keyint_min=23 / scenecut=40 / intra_refresh=0 / rc=2pass / mbtree=0 / bitrate=5364 / ratetol=1.0 / qcomp=0.60 / qpmin=0 / qpmax=69 / qpstep=4 / cplxblur=20.0 / qblur=0.5 / ip_ratio=1.40 / pb_ratio=1.30 / aq=1:0.60
Language : English
Default : Yes
Forced : No

Audio #1
ID : 2
Format : AC-3
Format/Info : Audio Coding 3
Codec ID : A_AC3
Duration : 2 h 4 min
Bit rate mode : Constant
Bit rate : 640 kb/s
Channel(s) : 6 channels
Channel positions : Front: L C R, Side: L R, LFE
Sampling rate : 48.0 kHz
Frame rate : 31.250 FPS (1536 SPF)
Bit depth : 16 bits
Compression mode : Lossy
Stream size : 568 MiB (10%)
Title : MVO Pozitiv-Multimedia
Language : Russian
Service kind : Complete Main
Default : Yes
Forced : No

Audio #2
ID : 3
Format : AC-3
Format/Info : Audio Coding 3
Codec ID : A_AC3
Duration : 2 h 4 min
Bit rate mode : Constant
Bit rate : 640 kb/s
Channel(s) : 6 channels
Channel positions : Front: L C R, Side: L R, LFE
Sampling rate : 48.0 kHz
Frame rate : 31.250 FPS (1536 SPF)
Bit depth : 16 bits
Compression mode : Lossy
Stream size : 568 MiB (10%)
Title : Eng
Language : English
Service kind : Complete Main
Default : No
Forced : No

Text #1
ID : 4
Format : UTF-8
Codec ID : S_TEXT/UTF8
Codec ID/Info : UTF-8 Plain Text
Title : Rus full Pozitiv-Multimedia
Language : Russian
Default : No
Forced : No

Text #2
ID : 5
Format : UTF-8
Codec ID : S_TEXT/UTF8
Codec ID/Info : UTF-8 Plain Text
Title : Eng full
Language : English
Default : No
Forced : No

Menu
00:00:00.000 : :00:00:00.000
00:09:59.098 : :00:09:59.098
00:18:58.846 : :00:18:58.846
00:28:54.149 : :00:28:54.149
00:37:43.594 : :00:37:43.594
00:49:47.317 : :00:49:47.317
00:59:30.984 : :00:59:30.984
01:10:08.871 : :01:10:08.871
01:18:48.348 : :01:18:48.348
01:35:05.157 : :01:35:05.157
01:53:53.701 : :01:53:53.701
01:57:43.639 : :01:57:43.639



Скачать Медвежатник.The.Score.(Фрэнк.Оз).[2001.боевик.комедия.криминал.BDRip].[720p].[MVO]+[Оригинал.Eng]+[Sub.Rus.Eng]x2.torrent без регистрации
Золото ЗОЛОТАЯ РАЗДАЧА! СКАЧАННОЕ НЕ ЗАСЧИТЫВАЕТСЯ! Золото
Дата: Зарегистрирован   [ Тип: внешний ] Как тут cкачать?
MAGNET ссылка
MAGNET ссылка


Скачать .torrent

15 KB

Статус: проверено DHT
Скачан: торрент - 20 раз, раздача полностью - 4 раз
Размер: 5,75 GB
Оценка:  - (Голосов: 0)
Поблагодарили: 0
Поделиться ссылкой на эту раздачу с друзьями:
В контактеFacebookОдноклассникиTwitterLivejournalМой МирLiveinternet
 

 
Показать сообщения:    


Вы не можете начинать темы
Вы не можете отвечать на сообщения
Вы не можете редактировать свои сообщения
Вы не можете удалять свои сообщения
Вы не можете голосовать в опросах
Вы не можете прикреплять файлы к сообщениям
Вы можете скачивать файлы