Loading...
Error

Скачать Повелитель зверей / The Beastmaster (Дон Коскарелли) [1982, фэнтези, боевик, приключения, BDRip] [720p] [AVO]x3+[Оригинал]+[Sub Eng]x2] торрент без регистрации

Статистика раздачи
Размер:  4,37 GB   |    Скачан:  14 раз
Сидов:  1  [  0 KB/s  ]  
 
 
 
Автор Сообщение

Marsianka

[] 

Страна: США, Германия (ФРГ)
Жанр: фэнтези, боевик, приключения
Год выпуска: 1982
Продолжительность: 01:58:28
Перевод: Авторский (Марченко Александр) + Авторский (Дохалов Вартан) + Авторский (Сербин Юрий) + Оригинальный
Субтитры: английские, английские (SDH).
Режиссер: Дон Коскарелли / Don Coscarelli
В ролях: Марк Сингер (Dar), Таня Робертс (Kiri), Рип Торн (Maax), Джон Эймос (Seth), Джош Милрад (Tal), Род Лумис (King Zed), Бен Хаммер (Young Dar's Father), Ральф Стрейт (Sacco), Билли Джейн (Young Dar), Джанет ДеМэй (Witchwoman #1), Крис Келлогг (Witchwoman #2), Джанет Джонс (Witchwoman #3)
Описание: Воин по имени Дар после того, как орда жестоких джанов уничтожила его родной посёлок, отправляется искать мести. Отмеченный знаком бога-зверя, он понимает язык птиц и животных, и его спутники - огромный ночной тигр, парочка хитрецов-хорьков и орёл - помогают ему не только сражаться с людьми, но и с неведомыми существами, обитающими в тёмных лесах и сырых подземельях.

MPAA: PG - Рекомендуется присутствие родителей
Семпл
Качество: BDRip
Контейнер: MKV

Видео: AVC, 1280x720 (16:9), 4513 kbps, 23,976 fps, 0,204 bpp
Аудио №1: русский / AC3 / 2.0 / 48 kHz / 192 kbps
Аудио №2: русский / AC3 / 2.0 / 48 kHz / 192 kbps
Аудио №3: русский / AC3 / 2.0 / 48 kHz / 192 kbps
Аудио №4: английский / AC3 / 2.0 / 48 kHz / 192 kbps
Навигация по главам: есть



Format : Matroska
Format version : Version 2
File size : 4.37 GiB
Duration : 1h 58mn
Overall bit rate : 5 282 Kbps
Movie name : = Повелитель зверей / The Beastmaster BDRip 720p by SC Kosmos =
Encoded date : UTC 2014-03-10 22:05:42
Writing application : mkvmerge v3.3.0 ('Language') gebaut am Mar 24 2010 14:59:24
Writing library : libebml v0.8.0 + libmatroska v0.9.0

Video
ID : 1
Format : AVC
Format/Info : Advanced Video Codec
Format profile : High@L4.1
Format settings, CABAC : Yes
Format settings, ReFrames : 9 frames
Codec ID : V_MPEG4/ISO/AVC
Duration : 1h 58mn
Bit rate : 4 513 Kbps
Width : 1 280 pixels
Height : 720 pixels
Display aspect ratio : 16:9
Frame rate : 23.976 fps
Color space : YUV
Chroma subsampling : 4:2:0
Bit depth : 8 bits
Scan type : Progressive
Bits/(Pixel*Frame) : 0.204
Stream size : 3.65 GiB (83%)
Title : Повелитель зверей / The Beastmaster BDRip 720p by SC Kosmos
Writing library : x264 core 140 r2377 1ca7bb9
Encoding settings : cabac=1 / ref=9 / deblock=1:-2:-3 / analyse=0x3:0x113 / me=esa / subme=11 / psy=1 / psy_rd=1.00:0.00 / mixed_ref=1 / me_range=32 / chroma_me=1 / trellis=2 / 8x8dct=1 / cqm=0 / deadzone=21,11 / fast_pskip=0 / chroma_qp_offset=-2 / threads=12 / lookahead_threads=1 / sliced_threads=0 / nr=0 / decimate=1 / interlaced=0 / bluray_compat=0 / constrained_intra=0 / bframes=14 / b_pyramid=2 / b_adapt=1 / b_bias=0 / direct=3 / weightb=1 / open_gop=0 / weightp=2 / keyint=240 / keyint_min=23 / scenecut=40 / intra_refresh=0 / rc=2pass / mbtree=0 / bitrate=4513 / ratetol=1.0 / qcomp=0.60 / qpmin=0 / qpmax=69 / qpstep=4 / cplxblur=20.0 / qblur=0.5 / ip_ratio=1.40 / pb_ratio=1.30 / aq=1:1.00 / zones=166320,170399,b=0.24
Language : English
Default : No
Forced : No

Audio #1
ID : 2
Format : AC-3
Format/Info : Audio Coding 3
Mode extension : CM (complete main)
Codec ID : A_AC3
Duration : 1h 58mn
Bit rate mode : Constant
Bit rate : 192 Kbps
Channel(s) : 2 channels
Channel positions : Front: L R
Sampling rate : 48.0 KHz
Bit depth : 16 bits
Compression mode : Lossy
Stream size : 163 MiB (4%)
Title : AVO ( Марченко )
Language : Russian
Default : Yes
Forced : No

Audio #2
ID : 3
Format : AC-3
Format/Info : Audio Coding 3
Mode extension : CM (complete main)
Codec ID : A_AC3
Duration : 1h 58mn
Bit rate mode : Constant
Bit rate : 192 Kbps
Channel(s) : 2 channels
Channel positions : Front: L R
Sampling rate : 48.0 KHz
Bit depth : 16 bits
Compression mode : Lossy
Stream size : 163 MiB (4%)
Title : AVO ( Дохалов )
Language : Russian
Default : No
Forced : No

Audio #3
ID : 4
Format : AC-3
Format/Info : Audio Coding 3
Mode extension : CM (complete main)
Codec ID : A_AC3
Duration : 1h 58mn
Bit rate mode : Constant
Bit rate : 192 Kbps
Channel(s) : 2 channels
Channel positions : Front: L R
Sampling rate : 48.0 KHz
Bit depth : 16 bits
Compression mode : Lossy
Stream size : 163 MiB (4%)
Title : AVO ( Сербин )
Language : Russian
Default : No
Forced : No

Audio #4
ID : 5
Format : AC-3
Format/Info : Audio Coding 3
Mode extension : CM (complete main)
Codec ID : A_AC3
Duration : 1h 58mn
Bit rate mode : Constant
Bit rate : 192 Kbps
Channel(s) : 2 channels
Channel positions : Front: L R
Sampling rate : 48.0 KHz
Bit depth : 16 bits
Compression mode : Lossy
Stream size : 163 MiB (4%)
Language : English
Default : No
Forced : No

Text #1
ID : 6
Format : UTF-8
Codec ID : S_TEXT/UTF8
Codec ID/Info : UTF-8 Plain Text
Language : English
Default : No
Forced : No

Text #2
ID : 7
Format : UTF-8
Codec ID : S_TEXT/UTF8
Codec ID/Info : UTF-8 Plain Text
Title : SDH
Language : English
Default : No
Forced : No

Menu
00:00:00.000 : en:Chapter 01
00:01:38.056 : en:Chapter 02
00:16:22.147 : en:Chapter 03
00:29:23.762 : en:Chapter 04
00:39:43.839 : en:Chapter 05
00:49:28.632 : en:Chapter 06
00:55:43.757 : en:Chapter 07
01:01:40.697 : en:Chapter 08
01:12:19.335 : en:Chapter 09
01:24:21.014 : en:Chapter 10
01:33:37.695 : en:Chapter 11
01:41:53.690 : en:Chapter 12
01:55:32.425 : en:Chapter 13




Скачать Повелитель.зверей.The.Beastmaster.(Дон.Коскарелли).[1982.фэнтези.боевик.приключения.BDRip].[720p].[AVO]x3+[Оригинал]+[Sub.Eng]x2].torrent без регистрации
Золото ЗОЛОТАЯ РАЗДАЧА! СКАЧАННОЕ НЕ ЗАСЧИТЫВАЕТСЯ! Золото
Дата: Зарегистрирован   [ Тип: внутренний ] Как тут cкачать?
MAGNET ссылка
MAGNET ссылка


Скачать .torrent

23 KB

Статус: проверено DHT
Скачан: торрент - 14 раз, раздача полностью - 0 раз
Размер: 4,37 GB
Оценка:  - (Голосов: 0)
Поблагодарили: 0
Поделиться ссылкой на эту раздачу с друзьями:
В контактеFacebookОдноклассникиTwitterLivejournalМой МирLiveinternet
 

 
Показать сообщения:    


Вы не можете начинать темы
Вы не можете отвечать на сообщения
Вы не можете редактировать свои сообщения
Вы не можете удалять свои сообщения
Вы не можете голосовать в опросах
Вы не можете прикреплять файлы к сообщениям
Вы можете скачивать файлы