Loading...
Error

Скачать Краун-Хайтс / Crown Heights (Мэтт Раскин) [2017, драма, WEBRip] [720p] [MVO (GreenРай Studio)] торрент без регистрации

Статистика раздачи
Размер:  3,04 GB   |    Скачан:  13 раз
Сидов:  1  [  0 KB/s  ]  
 
 
 
Автор Сообщение

МихаНЕзатор

[] 

Информация о фильме
Название: Краун-Хайтс
Оригинальное название: Crown Heights
Год выпуска: 2017
Жанр: драма
Режиссер: Мэтт Раскин

В ролях: Лейкит Стэнфилд, Нестор Карбонелл, Брайан Тайри Генри, Билл Кэмп, Зак Гренье, Юл Васкес, Гбенга Акиннагбе, Рон Кэнада, Ннамди Асомуга, Джош Пэйс

О фильме: 10 апреля 1980 года на улицах Краун-Хайтс прозвучал выстрел, повлекший за собой десятки лет судебных разбирательств в поисках справедливости. Колин Уорнер был арестован за преступление, которое не совершал. Он стал жертвой глубоко прогнившей системы, где никто не желает даже выслушать обвиняемого. Безвинно осужденный Колин постепенно теряет надежду на положительный исход, а его лучший друг Карл Кинг посвящает свою жизнь борьбе за свободу Колина, не сдаваясь на протяжении долгих лет.



Внимание,имеется видео и аудио реклама от спонсора показа


Страна: США
Студия: Black Maple Films
Продолжительность: 01:40:54
Перевод: Любительский многоголосый [GreenРай Studio]

Файл
Кодек: x.264
Качество: WEBRip 720p
Видео: 4000 Кбит/с, 1280x525, 23.976 fps
Звук: Русский (AC3, 2 ch, 448 Кбит/с)

АНОНСЫ ПОПУЛЯРНЫХ РАЗДАЧ
General
Unique ID : 237348410730997275053906534622055493643 (0xB28FA42245B9EEDDB3D0FAE36EC9F00B)
Complete name : E:GreenRayCrown.Heights.2017.P.WEB-DL.720p.mkv
Format : Matroska
Format version : Version 4 / Version 2
File size : 3.04 GiB
Duration : 1 h 40 min
Overall bit rate mode : Constant
Overall bit rate : 4 324 kb/s
Encoded date : UTC 2018-02-08 18:02:59
Writing application : mkvmerge v8.3.0 ('Over the Horizon') 64bit
Writing library : libebml v1.3.1 + libmatroska v1.4.2

Video
ID : 1
Format : AVC
Format/Info : Advanced Video Codec
Format profile : Main@L3.1
Format settings : CABAC / 3 Ref Frames
Format settings, CABAC : Yes
Format settings, ReFrames : 3 frames
Format settings, GOP : M=4, N=15
Codec ID : V_MPEG4/ISO/AVC
Duration : 1 h 40 min
Bit rate mode : Constant
Bit rate : 4 000 kb/s
Width : 1 280 pixels
Height : 528 pixels
Display aspect ratio : 2.40:1
Frame rate mode : Constant
Frame rate : 23.976 (24000/1001) FPS
Standard : NTSC
Color space : YUV
Chroma subsampling : 4:2:0
Bit depth : 8 bits
Scan type : Progressive
Bits/(Pixel*Frame) : 0.247
Stream size : 2.72 GiB (90%)
Language : English
Default : Yes
Forced : No
Color range : Limited

Audio
ID : 2
Format : AC-3
Format/Info : Audio Coding 3
Codec ID : A_AC3
Duration : 1 h 40 min
Bit rate mode : Constant
Bit rate : 448 kb/s
Channel(s) : 2 channels
Channel positions : Front: L R
Sampling rate : 48.0 kHz
Frame rate : 31.250 FPS (1536 SPF)
Bit depth : 16 bits
Compression mode : Lossy
Stream size : 322 MiB (10%)
Service kind : Complete Main
Default : Yes
Forced : No

Состав дикторов Кристина Филатова, Руслан Чериев, Андрей Данилко
Руководитель проекта и координатор: Евгений Овчаренко
Организатор и координатор: Никита Марков
Пиар менеджер студии: Гриша Чернозатонский
Техническая поддержка: Александр Методий



Скачать Краун-Хайтс.Crown.Heights.(Мэтт.Раскин).[2017.драма.WEBRip].[720p].[MVO.(GreenРай.Studio)].torrent без регистрации
Золото ЗОЛОТАЯ РАЗДАЧА! СКАЧАННОЕ НЕ ЗАСЧИТЫВАЕТСЯ! Золото
Дата: Зарегистрирован   [ Тип: внешний ] Как тут cкачать?
MAGNET ссылка
MAGNET ссылка


Скачать .torrent

16 KB

Статус: проверено DHT
Скачан: торрент - 13 раз, раздача полностью - 1 раз
Размер: 3,04 GB
Оценка:  - (Голосов: 0)
Поблагодарили: 2
Поделиться ссылкой на эту раздачу с друзьями:
В контактеFacebookОдноклассникиTwitterLivejournalМой МирLiveinternet
 

 
Показать сообщения:    


Вы не можете начинать темы
Вы не можете отвечать на сообщения
Вы не можете редактировать свои сообщения
Вы не можете удалять свои сообщения
Вы не можете голосовать в опросах
Вы не можете прикреплять файлы к сообщениям
Вы можете скачивать файлы