Loading...
Error

Скачать Леди Бёрд / Lady Bird (Грета Гервиг / Greta Gerwig) [2017, Драма, Комедия, WEB-DLRip-AVC] [Ukr MVO] + [Orig] (Eng) торрент без регистрации

Статистика раздачи
Размер:  2,55 GB   |    Скачан:  31 раз
Сидов:  126  [  0 KB/s  ]   Личеров:  4  [  0 KB/s  ]  
 
 
 
Автор Сообщение

leon030982

[] 

Леди Бёрд / Lady Bird

Год выпуска: 2017
Страна: США
Жанр: Драма, Комедия
Продолжительность: 01:32:56
Перевод: Сергея Сидорука
Озвучание: Украинское (профессиональное, многоголосое)
Субтитры: нет

Режиссер: Грета Гервиг / Greta Gerwig

В ролях: Сирша Ронан, Тимоти Шаламе, Одейя Раш, Лори Меткаф, Лукас Хеджес, Кэтрин Ньютон, Бини Фелдштейн, Джейк Макдорман, Трэйси Леттс, Даниэль МакДональд

Описание: История старшеклассницы Кристины МакФерсон, которая пытается сбежать из своего маленького городка в Нью-Йорк, заручившись поддержкой приёмного старшего брата. История о первой любви, настоящей дружбе и попытке найти своё место в жизни.



Качество видео: WEB-DLRip-AVC
Формат видео: MKV
Видео: AVC, 1024 х 576, 23,976 fps, ~3000 kbps avg
Аудио: 48 kHz, AC3 Dolby Digital, 6 ch, ~448 kbps - Ukr MVO
Аудио: 48 kHz, AC3 Dolby Digital, 6 ch, ~448 kbps - ENG

Релиз --
General
Unique ID : 227545128075732024614199915826966465958 (0xAB2F98FB663526CDB63415BD58288DA6)
Complete name : E:\INTERNET\Lady Bird (2017) WEBDLRip_AVC [Ukr_Eng] [ViDeO_Hurtom].mkv
Format : Matroska
Format version : Version 2
File size : 2.55 GiB
Duration : 1 h 33 min
Overall bit rate : 3 895 kb/s
Encoded date : UTC 2018-02-15 14:07:13
Writing application : mkvmerge v4.1.1 ('Bouncin' Back') сборка от Jul 3 2010 22:54:08
Writing library : libebml v1.0.0 + libmatroska v1.0.0

Video
ID : 1
Format : AVC
Format/Info : Advanced Video Codec
Format profile : Main@L4
Format settings : CABAC / 4 Ref Frames
Format settings, CABAC : Yes
Format settings, RefFrames : 4 frames
Codec ID : V_MPEG4/ISO/AVC
Duration : 1 h 33 min
Bit rate : 3 000 kb/s
Width : 1 024 pixels
Height : 576 pixels
Display aspect ratio : 1.85:1
Original display aspect rat : 1.85:1
Frame rate mode : Constant
Frame rate : 23.976 (24000/1001) FPS
Color space : YUV
Chroma subsampling : 4:2:0
Bit depth : 8 bits
Scan type : Progressive
Bits/(Pixel*Frame) : 0.212
Stream size : 1.91 GiB (75%)
Writing library : x264 core 148 r2708 86b7198
Encoding settings : cabac=1 / ref=2 / deblock=1:0:0 / analyse=0x1:0x111 / me=hex / subme=6 / psy=1 / psy_rd=1.00:0.00 / mixed_ref=1 / me_range=16 / chroma_me=1 / trellis=1 / 8x8dct=0 / cqm=0 / deadzone=21,11 / fast_pskip=1 / chroma_qp_offset=-2 / threads=9 / lookahead_threads=1 / sliced_threads=0 / nr=0 / decimate=1 / interlaced=0 / bluray_compat=0 / constrained_intra=0 / bframes=3 / b_pyramid=2 / b_adapt=1 / b_bias=0 / direct=1 / weightb=1 / open_gop=0 / weightp=1 / keyint=240 / keyint_min=24 / scenecut=40 / intra_refresh=0 / rc_lookahead=30 / rc=2pass / mbtree=1 / bitrate=3000 / ratetol=1.0 / qcomp=0.60 / qpmin=0 / qpmax=69 / qpstep=4 / cplxblur=20.0 / qblur=0.5 / vbv_maxrate=20000 / vbv_bufsize=25000 / nal_hrd=none / filler=0 / ip_ratio=1.40 / aq=1:1.00
Default : Yes
Forced : No
Color range : Limited
Color primaries : BT.709
Transfer characteristics : BT.709
Matrix coefficients : BT.709

Audio #1
ID : 2
Format : AC-3
Format/Info : Audio Coding 3
Format settings, Endianness : Big
Muxing mode : Header stripping
Codec ID : A_AC3
Duration : 1 h 33 min
Bit rate mode : Constant
Bit rate : 448 kb/s
Channel(s) : 6 channels
Channel positions : Front: L C R, Side: L R, LFE
Sampling rate : 48.0 kHz
Frame rate : 31.250 FPS (1536 SPF)
Bit depth : 16 bits
Compression mode : Lossy
Delay relative to video : -5 ms
Stream size : 300 MiB (12%)
Service kind : Complete Main
Default : Yes
Forced : No

Audio #2
ID : 3
Format : AC-3
Format/Info : Audio Coding 3
Format settings, Endianness : Big
Muxing mode : Header stripping
Codec ID : A_AC3
Duration : 1 h 33 min
Bit rate mode : Constant
Bit rate : 448 kb/s
Channel(s) : 6 channels
Channel positions : Front: L C R, Side: L R, LFE
Sampling rate : 48.0 kHz
Frame rate : 31.250 FPS (1536 SPF)
Bit depth : 16 bits
Compression mode : Lossy
Delay relative to video : -5 ms
Stream size : 300 MiB (12%)
Service kind : Complete Main
Default : No
Forced : No



Скачать Леди.Бёрд.Lady.Bird.(Грета.Гервиг.Greta.Gerwig).[2017.Драма.Комедия.WEB-DLRip-AVC].[Ukr.MVO].+.[Orig].(Eng).torrent без регистрации
Золото ЗОЛОТАЯ РАЗДАЧА! СКАЧАННОЕ НЕ ЗАСЧИТЫВАЕТСЯ! Золото
Дата: Зарегистрирован   [ Тип: внешний ] Как тут cкачать?
MAGNET ссылка
MAGNET ссылка


Скачать .torrent

26 KB

Статус: проверено DHT
Скачан: торрент - 31 раз, раздача полностью - 6 раз
Размер: 2,55 GB
Оценка:  3 (Голосов: 2)
Поблагодарили: 3
Поделиться ссылкой на эту раздачу с друзьями:
В контактеFacebookОдноклассникиTwitterLivejournalМой МирLiveinternet
 

 
Показать сообщения:    


Вы не можете начинать темы
Вы не можете отвечать на сообщения
Вы не можете редактировать свои сообщения
Вы не можете удалять свои сообщения
Вы не можете голосовать в опросах
Вы не можете прикреплять файлы к сообщениям
Вы можете скачивать файлы