Loading...
Error

Скачать По ту сторону надежды / Toivon tuolla puolen (Аки Каурисмяки) [2017, драма, комедия, BDRip] [720p] [MVO (лицензия iTunes)]+[Fin]+[Sub Rus, Eng] торрент без регистрации

Статистика раздачи
Размер:  6,81 GB   |    Скачан:  29 раз
Сидов:  1  [  0 KB/s  ]  
 
 
 
Автор Сообщение

МихаНЕзатор

[] 

Информация о фильме
Название: По ту сторону надежды
Оригинальное название: Toivon tuolla puolen
Год выхода: 2017
Жанр: драма, комедия
Режиссер: Аки Каурисмяки

В ролях: Вилле Виртанен, Кати Оутинен, Шерван Хаджи, Томми Корпела, Мирья Оксанен, Сакари Куосманен, Нироз Хаджи, Мария Ярвенхельми, Йорн Доннер, Илкка Койвула

О фильме: Где-то на окраине «асфальтовых джунглей» Хельсинки судьба сводит честного малого Каледа, потерявшего родину и близких, и бывшего коммивояжера Викстрёма, вложившего весь свой капитал в покупку убыточной забегаловки. Меланхоличный Викстрём и команда его эксцентричных работников берутся опекать нового знакомого. Пока Калед занят поисками пропавшей сестры, его новые друзья ищут способы преобразить свой ресторанчик и сделать его популярным заведением.



Страна: Финляндия, Германия
Студия: Oy Bufo Ab, Sputnik Oy, Zweites Deutsches Fernsehen (ZDF)
Продолжительность: 01:40:08
Перевод: Профессиональный (многоголосный, закадровый) | iTunes

Файл
Формат: mkv
Качество: BDRip 720p
Видео: MPEG-4 AVC, 8514 Кбит/с, 1280x692
Звук#1: Русский (AC3, 6 ch, 384 Кбит/с)
Звук#2: финский (AC3, 6 ch, 640 Кбит/с)
Субтитры: Русские, английские

АНОНСЫ ПОПУЛЯРНЫХ РАЗДАЧ

Общее
Уникальный идентификатор : 215551760002114625587792828886826733217 (0xA229C24846A862CCB82CFA60DFE5CEA1)
Полное имя : D:\Заготовки\Toivon.tuolla.puolen.2017.P.BDRip.72Op.mkv
Формат : Matroska
Версия формата : Version 2
Размер файла : 6,81 Гбайт
Продолжительность : 1 ч. 40 м.
Общий поток : 9732 Кбит/сек
Дата кодирования : UTC 2018-02-11 00:21:24
Программа кодирования : mkvmerge v7.8.0 ('River Man') 32bit built on Apr 3 2015 12:11:22
Библиотека кодирования : libebml v1.3.1 + libmatroska v1.4.2

Видео
Идентификатор : 1
Формат : AVC
Формат/Информация : Advanced Video Codec
Профиль формата : High@L4.1
Настройки формата : CABAC / 9 Ref Frames
Параметр CABAC формата : Да
Параметр RefFrames формата : 9 кадров
Идентификатор кодека : V_MPEG4/ISO/AVC
Продолжительность : 1 ч. 40 м.
Битрейт : 8514 Кбит/сек
Ширина : 1280 пикселей
Высота : 692 пикселя
Соотношение сторон : 1,85:1
Режим частоты кадров : Постоянный
Частота кадров : 24,000 кадра/сек
Цветовое пространство : YUV
Субдискретизация насыщенности : 4:2:0
Битовая глубина : 8 бит
Тип развёртки : Прогрессивная
Бит/(Пиксели*Кадры) : 0.401
Размер потока : 5,96 Гбайт (87%)
Библиотека кодирования : x264 core 152 r2851+58 429492e t_mod_Custom [8-bit@all X86_64]
Настройки программы : cabac=1 / ref=9 / deblock=1:-3:-3 / analyse=0x3:0x113 / me=umh / subme=10 / psy=1 / fade_compensate=0.00 / psy_rd=1.03:0.00 / mixed_ref=1 / me_range=32 / chroma_me=1 / trellis=2 / 8x8dct=1 / cqm=0 / deadzone=21,11 / fast_pskip=0 / chroma_qp_offset=-2 / threads=22 / lookahead_threads=5 / sliced_threads=0 / nr=0 / decimate=0 / interlaced=0 / bluray_compat=0 / constrained_intra=0 / fgo=0 / bframes=12 / b_pyramid=2 / b_adapt=2 / b_bias=0 / direct=3 / weightb=1 / open_gop=0 / weightp=2 / keyint=240 / keyint_min=24 / scenecut=40 / intra_refresh=0 / rc_lookahead=60 / rc=crf / mbtree=0 / crf=19.4000 / qcomp=0.75 / qpmin=0:0:0 / qpmax=69:69:69 / qpstep=4 / vbv_maxrate=62500 / vbv_bufsize=78125 / crf_max=0.0 / nal_hrd=none / filler=0 / ip_ratio=1.30 / pb_ratio=1.20 / aq=3:0.85 / aq-sensitivity=10.00 / aq-factor=1.00:1.00:1.00 / aq2=1:0.75 / aq2-sensitivity=15.00 / aq2-factor=1.00:1.00:1.00 / aq3=1:[0.75:0.75]:[0.75:0.75]:[0.75:0.75]:[0.75:0.75] / aq3-sensitivity=10.00 / aq3-factor=[1.00:1.00]:[1.00:1.00]:[1.00:1.00] / aq3-boundary=192:64:24
Язык : Finnish
Default : Да
Forced : Нет
Цветовой диапазон : Limited
Основные цвета : BT.709
Характеристики трансфера : BT.709
Коэффициенты матрицы : BT.709

Аудио #1
Идентификатор : 2
Формат : AC-3
Формат/Информация : Audio Coding 3
Идентификатор кодека : A_AC3
Продолжительность : 1 ч. 40 м.
Вид битрейта : Постоянный
Битрейт : 384 Кбит/сек
Каналы : 6 каналов
Расположение каналов : Front: L C R, Side: L R, LFE
Частота : 48,0 КГц
Частота кадров : 31,250 кадров/сек (1536 SPF)
Битовая глубина : 16 бит
Метод сжатия : С потерями
Размер потока : 275 Мбайт (4%)
Заголовок : iTunes
Язык : Russian
ServiceKind/String : Complete Main
Default : Да
Forced : Нет

Аудио #2
Идентификатор : 3
Формат : AC-3
Формат/Информация : Audio Coding 3
Идентификатор кодека : A_AC3
Продолжительность : 1 ч. 40 м.
Вид битрейта : Постоянный
Битрейт : 640 Кбит/сек
Каналы : 6 каналов
Расположение каналов : Front: L C R, Side: L R, LFE
Частота : 48,0 КГц
Частота кадров : 31,250 кадров/сек (1536 SPF)
Битовая глубина : 16 бит
Метод сжатия : С потерями
Размер потока : 458 Мбайт (7%)
Заголовок : Original
Язык : Finnish
ServiceKind/String : Complete Main
Default : Нет
Forced : Нет

Текст #1
Идентификатор : 4
Формат : UTF-8
Идентификатор кодека : S_TEXT/UTF8
Идентификатор кодека/Информация : UTF-8 Plain Text
Заголовок : Full
Язык : Russian
Default : Нет
Forced : Нет

Текст #2
Идентификатор : 5
Формат : UTF-8
Идентификатор кодека : S_TEXT/UTF8
Идентификатор кодека/Информация : UTF-8 Plain Text
Заголовок : Full
Язык : English
Default : Нет
Forced : Нет

Меню
00:00:00.000 : en:00:00:00.000
00:07:12.250 : en:00:07:12.250
00:18:13.667 : en:00:18:13.667
00:27:52.958 : en:00:27:52.958
00:36:34.458 : en:00:36:34.458
00:44:12.292 : en:00:44:12.292
00:50:31.250 : en:00:50:31.250
00:55:32.125 : en:00:55:32.125
01:06:48.917 : en:01:06:48.917
01:17:25.125 : en:01:17:25.125
01:28:07.083 : en:01:28:07.083
01:35:51.167 : en:01:35:51.167



Скачать По.ту.сторону.надежды.Toivon.tuolla.puolen.(Аки.Каурисмяки).[2017.драма.комедия.BDRip].[720p].[MVO.(лицензия.iTunes)]+[Fin]+[Sub.Rus.Eng].torrent без регистрации
Золото ЗОЛОТАЯ РАЗДАЧА! СКАЧАННОЕ НЕ ЗАСЧИТЫВАЕТСЯ! Золото
Дата: Зарегистрирован   [ Тип: внутренний ] Как тут cкачать?
MAGNET ссылка
MAGNET ссылка


Скачать .torrent

35 KB

Статус: проверено DHT
Скачан: торрент - 29 раз, раздача полностью - 29 раз
Размер: 6,81 GB
Оценка:  - (Голосов: 0)
Поблагодарили: 2
Поделиться ссылкой на эту раздачу с друзьями:
В контактеFacebookОдноклассникиTwitterLivejournalМой МирLiveinternet
 

 
Показать сообщения:    


Вы не можете начинать темы
Вы не можете отвечать на сообщения
Вы не можете редактировать свои сообщения
Вы не можете удалять свои сообщения
Вы не можете голосовать в опросах
Вы не можете прикреплять файлы к сообщениям
Вы можете скачивать файлы