Loading...
Error

Скачать По ту сторону надежды / Toivon tuolla puolen (Аки Каурисмяки) [2017, драма, комедия, BDRip-AVC] [MVO (лицензия iTunes)]+[Sub Rus, Eng] торрент без регистрации

Статистика раздачи
Размер:  2,56 GB   |    Скачан:  23 раза
Сидов:  1  [  0 KB/s  ]  
 
 
 
Автор Сообщение

МихаНЕзатор

[] 

По ту сторону надежды / Toivon tuolla puolen


Год выпуска: 2017
Страна: Финляндия, Германия
Производство: Oy Bufo Ab, Sputnik Oy, Zweites Deutsches Fernsehen (ZDF)
Жанр: драма, комедия
Режиссёр: Аки Каурисмяки

В ролях: Вилле Виртанен, Кати Оутинен, Шерван Хаджи, Томми Корпела, Мирья Оксанен, Сакари Куосманен, Нироз Хаджи, Мария Ярвенхелми, Йорн Доннер, Илкка Койвула

Описание: Где-то на окраине «асфальтовых джунглей» Хельсинки судьба сводит честного малого Каледа, потерявшего родину и близких, и бывшего коммивояжера Викстрёма, вложившего весь свой капитал в покупку убыточной забегаловки. Меланхоличный Викстрём и команда его эксцентричных работников берутся опекать нового знакомого. Пока Калед занят поисками пропавшей сестры, его новые друзья ищут способы преобразить свой ресторанчик и сделать его популярным заведением.

Дата премьеры (мир): 25 января 2017
Дата премьеры (РФ): 7 декабря 2017, «Русский Репортаж»



Продолжительность: 01:40:08
Перевод: Профессиональный многоголосый | iTunes
Субтитры: Русские, Английские
Реклама: Отсутствует

Качество: BDRip-AVC
Формат: MKV
Видео кодек: MPEG-4 AVC
Аудио кодек: AC3
Видео: 1024x552 (1.85:1), 24,000 fps, x264 ~3 271 kbps avg, 0.241 bit/pixel
Аудио: 48 kHz, AC3 Dolby Digital, 3/2 (L,C,R,l,r) + LFE ch, ~384.00 kbps avg | RUS (iTunes)

АНОНСЫ ПОПУЛЯРНЫХ РАЗДАЧ

Общее
Уникальный идентификатор : 195751471500951493844883899804186709514 (0x93445CB01AF998AD85EDEFC1E4660E0A)
Полное имя : E:OlLanDGroupThe.Other.Side.of.Hope.2017.BDRip(AVC).OlLanDGroup.mkv
Формат : Matroska
Версия формата : Version 2
Размер файла : 2,56 Гбайт
Продолжительность : 1 ч. 40 м.
Общий поток : 3654 Кбит/сек
Название фильма : The.Other.Side.of.Hope.2017 #TorpedoUK#
Дата кодирования : UTC 2018-02-11 10:21:46
Программа кодирования : mkvmerge v7.8.0 ('River Man') 32bit built on Apr 3 2015 12:11:22
Библиотека кодирования : libebml v1.3.1 + libmatroska v1.4.2

Видео
Идентификатор : 1
Формат : AVC
Формат/Информация : Advanced Video Codec
Профиль формата : High@L4.1
Параметр CABAC формата : Да
Параметр ReFrames формата : 10 кадров
Идентификатор кодека : V_MPEG4/ISO/AVC
Продолжительность : 1 ч. 40 м.
Битрейт : 3271 Кбит/сек
Ширина : 1024 пикселя
Высота : 552 пикселя
Соотношение сторон : 1,85:1
Режим частоты кадров : Постоянный
Частота кадров : 24,000 кадра/сек
Цветовое пространство : YUV
Субдискретизация насыщенности : 4:2:0
Битовая глубина : 8 бит
Тип развёртки : Прогрессивная
Бит/(Пиксели*Кадры) : 0.241
Размер потока : 2,24 Гбайт (88%)
Библиотека кодирования : x264 core 146 r2538 121396c
Настройки программы : cabac=1 / ref=10 / deblock=1:-2:-3 / analyse=0x3:0x133 / me=umh / subme=11 / psy=1 / psy_rd=0.95:0.07 / mixed_ref=1 / me_range=48 / chroma_me=1 / trellis=2 / 8x8dct=1 / cqm=0 / deadzone=21,11 / fast_pskip=1 / chroma_qp_offset=-3 / threads=6 / lookahead_threads=1 / sliced_threads=0 / nr=0 / decimate=1 / interlaced=0 / bluray_compat=0 / constrained_intra=0 / bframes=10 / b_pyramid=2 / b_adapt=2 / b_bias=0 / direct=3 / weightb=1 / open_gop=0 / weightp=2 / keyint=240 / keyint_min=23 / scenecut=40 / intra_refresh=0 / rc_lookahead=40 / rc=2pass / mbtree=0 / bitrate=3271 / ratetol=1.0 / qcomp=0.60 / qpmin=0 / qpmax=69 / qpstep=4 / cplxblur=20.0 / qblur=0.5 / vbv_maxrate=50000 / vbv_bufsize=62500 / nal_hrd=none / filler=0 / ip_ratio=1.40 / pb_ratio=1.30 / aq=1:1.00
Язык : English
Default : Да
Forced : Нет

Аудио
Идентификатор : 2
Формат : AC-3
Формат/Информация : Audio Coding 3
Расширение режима : CM (complete main)
Параметр Endianness формата : Big
Идентификатор кодека : A_AC3
Продолжительность : 1 ч. 40 м.
Вид битрейта : Постоянный
Битрейт : 384 Кбит/сек
Каналы : 6 каналов
Расположение каналов : Front: L C R, Side: L R, LFE
Частота : 48,0 КГц
Частота кадров : 31,250 кадров/сек (1536 spf)
Битовая глубина : 16 бит
Метод сжатия : С потерями
Размер потока : 275 Мбайт (11%)
Заголовок : iTunes
Язык : Russian
Default : Да
Forced : Нет

Текст #1
Идентификатор : 3
Формат : UTF-8
Идентификатор кодека : S_TEXT/UTF8
Идентификатор кодека/Информация : UTF-8 Plain Text
Язык : Russian
Default : Нет
Forced : Нет

Текст #2
Идентификатор : 4
Формат : UTF-8
Идентификатор кодека : S_TEXT/UTF8
Идентификатор кодека/Информация : UTF-8 Plain Text
Язык : English
Default : Нет
Forced : Нет

Меню
00:00:00.000 : en:Chapter 1
00:07:12.250 : en:Chapter 2
00:18:13.666 : en:Chapter 3
00:27:52.958 : en:Chapter 4
00:36:34.458 : en:Chapter 5
00:44:12.291 : en:Chapter 6
00:50:31.250 : en:Chapter 7
00:55:32.125 : en:Chapter 8
01:06:48.916 : en:Chapter 9
01:17:25.125 : en:Chapter 10
01:28:07.083 : en:Chapter 11
01:35:51.166 : en:Chapter 12



Скачать По.ту.сторону.надежды.Toivon.tuolla.puolen.(Аки.Каурисмяки).[2017.драма.комедия.BDRip-AVC].[MVO.(лицензия.iTunes)]+[Sub.Rus.Eng].torrent без регистрации
Золото ЗОЛОТАЯ РАЗДАЧА! СКАЧАННОЕ НЕ ЗАСЧИТЫВАЕТСЯ! Золото
Дата: Зарегистрирован   [ Тип: внутренний ] Как тут cкачать?
MAGNET ссылка
MAGNET ссылка


Скачать .torrent

14 KB

Статус: проверено DHT
Скачан: торрент - 23 раз, раздача полностью - 7 раз
Размер: 2,56 GB
Оценка:  - (Голосов: 0)
Поблагодарили: 2
Поделиться ссылкой на эту раздачу с друзьями:
В контактеFacebookОдноклассникиTwitterLivejournalМой МирLiveinternet
 

 
Показать сообщения:    


Вы не можете начинать темы
Вы не можете отвечать на сообщения
Вы не можете редактировать свои сообщения
Вы не можете удалять свои сообщения
Вы не можете голосовать в опросах
Вы не можете прикреплять файлы к сообщениям
Вы можете скачивать файлы