Loading...
Error

Скачать Сламбер: Лабиринты сна / Slumber (Джонатан Хопкинс) [2017, ужасы, WEB-DL] [1080p] [Dub (лицензия iTunes)] торрент без регистрации

Статистика раздачи
Размер:  2,89 GB   |    Скачан:  74 раза
Сидов:  1  [  0 KB/s  ]  
 
 
 
Автор Сообщение

МихаНЕзатор

[] 

Информация о фильме
Название: Сламбер: Лабиринты сна
Оригинальное название: Slumber
Год выхода: 2017
Жанр: ужасы
Режиссер: Джонатан Хопкинс

В ролях: Мэгги Кью, Хонор Книфси, Сильвестр МакКой, Уилл Кемп, Кристен Буш, Уильям Хоуп, Сэм Тротон, Марк Престон, Грэйс Шнайдер, Винсент Андриано и др.

О фильме: Доктор Элис изучает ночные кошмары и поведение людей во сне, сама при этом страдая параноидальными видениями. Она пытается помочь молодой семье избавиться от невероятного ужаса, с которым они сталкиваются каждую ночь. Но в ходе своей работы, Элис приходится отказаться от стандартных методов лечения и осознать, что по ночам в души этой семьи проникает нечто потустороннее. Чтобы спасти людей от этого зла, ей придётся встретиться лицом к лицу со своими собственными страхами, которые преследуют её всю жизнь.



Страна: Великобритания, США
Студия: Goldcrest Films International, Tea Shop & Film Company
Перевод: Дублированный | iTunes
Продолжительность: 01:24:08

Файл
Качество: WEB-DL 1080p
Видео: MPEG-4 AVC, 1920x804, 4539 kbps, 24,000 fps
Звук: Русский: AC3, 6 ch, 48 kHz, 384 kbps

АНОНСЫ ПОПУЛЯРНЫХ РАЗДАЧ
Общее
Уникальный идентификатор : 178747918600699317674446815055316852047 (0x867998CDFAC130E796FD1BD628DD1D4F)
Полное имя : E:UttorentSlumberСламбер_ Лабиринты сна (1080p HD).mkv
Формат : Matroska
Версия формата : Version 4 / Version 2
Размер файла : 2,89 Гбайт
Продолжительность : 1 ч. 24 м.
Общий поток : 4925 Кбит/сек
Дата кодирования : UTC 2018-02-12 12:03:46
Программа кодирования : mkvmerge v9.5.0 ('Quiet Fire') 64bit
Библиотека кодирования : libebml v1.3.4 + libmatroska v1.4.5

Видео
Идентификатор : 1
Формат : AVC
Формат/Информация : Advanced Video Codec
Профиль формата : High@L4
Настройки формата : CABAC / 5 Ref Frames
Параметр CABAC формата : Да
Параметр RefFrames формата : 5 кадров
Идентификатор кодека : V_MPEG4/ISO/AVC
Продолжительность : 1 ч. 24 м.
Битрейт : 4539 Кбит/сек
Ширина : 1920 пикселей
Высота : 804 пикселя
Соотношение сторон : 2,40:1
Режим частоты кадров : Постоянный
Частота кадров : 24,000 кадра/сек
Цветовое пространство : YUV
Субдискретизация насыщенности : 4:2:0
Битовая глубина : 8 бит
Тип развёртки : Прогрессивная
Бит/(Пиксели*Кадры) : 0.123
Размер потока : 2,67 Гбайт (92%)
Язык : English
Default : Да
Forced : Нет
Цветовой диапазон : Limited
Основные цвета : BT.709
Характеристики трансфера : BT.709
Коэффициенты матрицы : BT.709

Аудио
Идентификатор : 2
Формат : AC-3
Формат/Информация : Audio Coding 3
Параметр Endianness формата : Big
Идентификатор кодека : A_AC3
Продолжительность : 1 ч. 24 м.
Вид битрейта : Постоянный
Битрейт : 384 Кбит/сек
Каналы : 6 каналов
Расположение каналов : Front: L C R, Side: L R, LFE
Частота : 48,0 КГц
Частота кадров : 31,250 кадров/сек (1536 SPF)
Битовая глубина : 16 бит
Метод сжатия : С потерями
Размер потока : 231 Мбайт (8%)
Язык : Russian
Default : Да
Forced : Нет

Меню
00:00:00.000 : en:Глава 1
00:07:14.083 : en:Глава 2
00:14:26.458 : en:Глава 3
00:21:30.083 : en:Глава 4
00:28:49.458 : en:Глава 5
00:36:21.999 : en:Глава 6
00:44:23.082 : en:Глава 7
00:51:37.123 : en:Глава 8
00:58:49.956 : en:Глава 9
01:06:04.122 : en:Глава 10
01:14:17.080 : en:Глава 11



Скачать Сламбер.Лабиринты.сна.Slumber.(Джонатан.Хопкинс).[2017.ужасы.WEB-DL].[1080p].[Dub.(лицензия.iTunes)].torrent без регистрации
Золото ЗОЛОТАЯ РАЗДАЧА! СКАЧАННОЕ НЕ ЗАСЧИТЫВАЕТСЯ! Золото
Дата: Зарегистрирован   [ Тип: внутренний ] Как тут cкачать?
MAGNET ссылка
MAGNET ссылка


Скачать .torrent

15 KB

Статус: проверено DHT
Скачан: торрент - 74 раз, раздача полностью - 95 раз
Размер: 2,89 GB
Оценка:  5 (Голосов: 1)
Поблагодарили: 4
Поделиться ссылкой на эту раздачу с друзьями:
В контактеFacebookОдноклассникиTwitterLivejournalМой МирLiveinternet
 

 
Показать сообщения:    


Вы не можете начинать темы
Вы не можете отвечать на сообщения
Вы не можете редактировать свои сообщения
Вы не можете удалять свои сообщения
Вы не можете голосовать в опросах
Вы не можете прикреплять файлы к сообщениям
Вы можете скачивать файлы