Loading...
Error

Скачать Сламбер: Лабиринты сна / Slumber (Джонатан Хопкинс) [2017, ужасы, WEB-DLRip-AVC] [Dub (лицензия iTunes)] торрент без регистрации

Статистика раздачи
Размер:  1,29 GB   |    Скачан:  67 раз
Сидов:  1  [  0 KB/s  ]  
 
 
 
Автор Сообщение

МихаНЕзатор

[] 

Сламбер: Лабиринты сна / Slumber
«Welcome to the Original Nightmare»


Год выпуска: 2017
Страна: Великобритания, США
Производство: Goldcrest Films International
Жанр: Ужасы
Режиссёр: Джонатан Хопкинс

В ролях: Хонор Книфси, Мэгги Кью, Сильвестр МакКой, Уилл Кемп, Уильям Хоуп, Марк Престон, Сэм Тротон, Кристен Буш, Адам Лазарус, Грэйс Шнайдер

Описание: Доктор Элис изучает ночные кошмары и поведение людей во сне, сама при этом страдая параноидальными видениями. Она пытается помочь молодой семье избавиться от невероятного ужаса, с которым они сталкиваются каждую ночь. Но в ходе своей работы, Элис приходится отказаться от стандартных методов лечения и осознать, что по ночам в души этой семьи проникает нечто потустороннее.

Дата премьеры (мир): 10 ноября 2017
Дата премьеры (РФ): 11 января 2018, «All Media»



Продолжительность: 01:24:16
Перевод: Дублированный | iTunes
Субтитры: Английские
Реклама: Отсутствует

Качество: WEB-DLRip-AVC
Формат: MKV
Видео кодек: MPEG-4 AVC
Аудио кодек: AC3
Видео: 1024x426 (2.40:1), 23,976 fps, x264 ~1 422 kbps avg, 0.136 bit/pixel
Аудио #1: 48 kHz, AC3 Dolby Digital, 3/2 (L,C,R,l,r) + LFE ch, ~384.00 kbps avg | RUS (iTunes)
Аудио #2: 48 kHz, AC3 Dolby Digital, 3/2 (L,C,R,l,r) + LFE ch, ~384.00 kbps avg | ENG

АНОНСЫ ПОПУЛЯРНЫХ РАЗДАЧ

Общее
Уникальный идентификатор : 192672535667684717730982291525146582411 (0x90F3616E5E5C8491A9B3A0D24B851D8B)
Полное имя : E:OlLanDGroupSlumber.2017.WEB-DLRip(AVC).OlLanDGroup.mkv
Формат : Matroska
Версия формата : Version 2
Размер файла : 1,29 Гбайт
Продолжительность : 1 ч. 24 м.
Общий поток : 2189 Кбит/сек
Название фильма : Slumber.2017 #TorpedoUK#
Дата кодирования : UTC 2018-02-12 15:04:52
Программа кодирования : mkvmerge v7.8.0 ('River Man') 32bit built on Apr 3 2015 12:11:22
Библиотека кодирования : libebml v1.3.1 + libmatroska v1.4.2
Обложка : Yes
Attachments : small_cover.jpg / small_cover_land.jpg / cover.jpg / cover_land.jpg

Видео
Идентификатор : 1
Формат : AVC
Формат/Информация : Advanced Video Codec
Профиль формата : High@L4.1
Параметр CABAC формата : Да
Параметр ReFrames формата : 10 кадров
Идентификатор кодека : V_MPEG4/ISO/AVC
Продолжительность : 1 ч. 24 м.
Битрейт : 1422 Кбит/сек
Ширина : 1024 пикселя
Высота : 426 пикселей
Соотношение сторон : 2,40:1
Режим частоты кадров : Постоянный
Частота кадров : 23,976 (24000/1001) кадра/сек
Цветовое пространство : YUV
Субдискретизация насыщенности : 4:2:0
Битовая глубина : 8 бит
Тип развёртки : Прогрессивная
Бит/(Пиксели*Кадры) : 0.136
Размер потока : 830 Мбайт (63%)
Библиотека кодирования : x264 core 146 r2538 121396c
Настройки программы : cabac=1 / ref=10 / deblock=1:-3:-3 / analyse=0x3:0x133 / me=umh / subme=11 / psy=1 / psy_rd=1.00:0.03 / mixed_ref=1 / me_range=48 / chroma_me=1 / trellis=2 / 8x8dct=1 / cqm=0 / deadzone=21,11 / fast_pskip=1 / chroma_qp_offset=-3 / threads=6 / lookahead_threads=1 / sliced_threads=0 / nr=0 / decimate=1 / interlaced=0 / bluray_compat=0 / constrained_intra=0 / bframes=10 / b_pyramid=2 / b_adapt=2 / b_bias=0 / direct=3 / weightb=1 / open_gop=0 / weightp=2 / keyint=240 / keyint_min=23 / scenecut=40 / intra_refresh=0 / rc_lookahead=40 / rc=2pass / mbtree=0 / bitrate=1422 / ratetol=1.0 / qcomp=0.60 / qpmin=0 / qpmax=69 / qpstep=4 / cplxblur=20.0 / qblur=0.5 / vbv_maxrate=50000 / vbv_bufsize=62500 / nal_hrd=none / filler=0 / ip_ratio=1.40 / pb_ratio=1.30 / aq=1:1.00
Язык : English
Default : Да
Forced : Нет

Аудио #1
Идентификатор : 2
Формат : AC-3
Формат/Информация : Audio Coding 3
Расширение режима : CM (complete main)
Параметр Endianness формата : Big
Идентификатор кодека : A_AC3
Продолжительность : 1 ч. 24 м.
Вид битрейта : Постоянный
Битрейт : 384 Кбит/сек
Каналы : 6 каналов
Расположение каналов : Front: L C R, Side: L R, LFE
Частота : 48,0 КГц
Частота кадров : 31,250 кадров/сек (1536 spf)
Битовая глубина : 16 бит
Метод сжатия : С потерями
Размер потока : 231 Мбайт (18%)
Заголовок : iTunes
Язык : Russian
Default : Да
Forced : Нет

Аудио #2
Идентификатор : 3
Формат : AC-3
Формат/Информация : Audio Coding 3
Расширение режима : CM (complete main)
Параметр Endianness формата : Big
Идентификатор кодека : A_AC3
Продолжительность : 1 ч. 24 м.
Вид битрейта : Постоянный
Битрейт : 384 Кбит/сек
Каналы : 6 каналов
Расположение каналов : Front: L C R, Side: L R, LFE
Частота : 48,0 КГц
Частота кадров : 31,250 кадров/сек (1536 spf)
Битовая глубина : 16 бит
Метод сжатия : С потерями
Размер потока : 231 Мбайт (18%)
Заголовок : Original
Язык : English
Default : Нет
Forced : Нет

Текст
Идентификатор : 4
Формат : UTF-8
Идентификатор кодека : S_TEXT/UTF8
Идентификатор кодека/Информация : UTF-8 Plain Text
Заголовок : Full
Язык : English
Default : Нет
Forced : Нет

Меню
00:00:00.000 : en:1
00:05:26.000 : en:2
00:10:54.000 : en:3
00:16:57.000 : en:4
00:21:35.000 : en:5
00:27:56.000 : en:6
00:33:05.000 : en:7
00:38:26.000 : en:8
00:44:52.000 : en:9
00:48:56.000 : en:10
00:53:23.000 : en:11
00:59:02.000 : en:12
01:04:54.000 : en:13
01:08:32.000 : en:14
01:17:25.000 : en:15
01:21:44.000 : en:16



Скачать Сламбер.Лабиринты.сна.Slumber.(Джонатан.Хопкинс).[2017.ужасы.WEB-DLRip-AVC].[Dub.(лицензия.iTunes)].torrent без регистрации
Золото ЗОЛОТАЯ РАЗДАЧА! СКАЧАННОЕ НЕ ЗАСЧИТЫВАЕТСЯ! Золото
Дата: Зарегистрирован   [ Тип: внутренний ] Как тут cкачать?
MAGNET ссылка
MAGNET ссылка


Скачать .torrent

14 KB

Статус: проверено DHT
Скачан: торрент - 67 раз, раздача полностью - 70 раз
Размер: 1,29 GB
Оценка:  5 (Голосов: 1)
Поблагодарили: 7
Поделиться ссылкой на эту раздачу с друзьями:
В контактеFacebookОдноклассникиTwitterLivejournalМой МирLiveinternet
 

 
Показать сообщения:    


Вы не можете начинать темы
Вы не можете отвечать на сообщения
Вы не можете редактировать свои сообщения
Вы не можете удалять свои сообщения
Вы не можете голосовать в опросах
Вы не можете прикреплять файлы к сообщениям
Вы можете скачивать файлы