Loading...
Error

Скачать Этот остров Земля / This Island Earth (Джозеф М. Ньюман) [1955, фантастика, BDRip-AVC] [VO (Eraserhead / Павел Иванов)]+[Оригинал Eng]+[Sub Rus, Eng]x2 торрент без регистрации

Статистика раздачи
Размер:  1,46 GB   |    Скачан:  9 раз
Сидов:  3  [  0 KB/s  ]  
 
 
 
Автор Сообщение

Marsianka

[] 

Страна: США
Жанр: фантастика
Продолжительность: 01:26:01
Год выпуска: 1955
Перевод: Любительский (одноголосый закадровый) (Eraserhead / Павел Иванов)
Режиссёр: Джозеф М. Ньюман / Joseph M. Newman
В ролях: Джефф Морроу, Фэйт Домерг, Рекс Ризон, Лэнс Фуллер, Расселл Джонсон, Дуглас Спенсер, Роберт Николс, Карл Людвиг Линдт, Джек Байрон, Спенсер Чан
Описание: Ученого работающего над разработкой ядерной энергии приглашает на работу странный человек по имени Экзитор, представившимся главой союза ученых, работающих на благо человечества. Но он совсем не тот, за кого себя выдает.


Кодек: x.264
Качество: BDRip-AVC
Видео: High@L4.1; 1024x552; 2049 Кбит/сек; 23,976 кадра/сек; 0.151
Аудио:
1. Russian: AC3; 48,0 КГц; 192 Кбит/сек; 2 канала (L1)
2. English: AC3; 48,0 КГц; 192 Кбит/сек; 2 канала (Original)
Субтитры: русские (Eraserhead), английские
Главы: Да


Общее
Уникальный идентификатор : 186261401706723289461358392726909737135 (0x8C20A41F5460ECCC8099EC03CE3DD8AF)
Полное имя : D:Фильмы_ИзбранноеЭтот остров Земля (1955) BDRip L1.mkv
Формат : Matroska
Версия формата : Version 4 / Version 2
Размер файла : 1,46 Гбайт
Продолжительность : 1 ч. 26 м.
Общий поток : 2435 Кбит/сек
Дата кодирования : UTC 2018-02-12 15:09:07
Программа кодирования : mkvmerge v9.8.0 ('Kuglblids') 64bit
Библиотека кодирования : libebml v1.3.4 + libmatroska v1.4.5

Видео
Идентификатор : 1
Формат : AVC
Формат/Информация : Advanced Video Codec
Профиль формата : High@L4.1
Настройки формата : CABAC / 14 Ref Frames
Параметр CABAC формата : Да
Параметр RefFrames формата : 14 кадров
Идентификатор кодека : V_MPEG4/ISO/AVC
Продолжительность : 1 ч. 26 м.
Битрейт : 2049 Кбит/сек
Ширина : 1024 пикселя
Высота : 552 пикселя
Соотношение сторон : 1,85:1
Режим частоты кадров : Постоянный
Частота кадров : 23,976 (24000/1001) кадра/сек
Цветовое пространство : YUV
Субдискретизация насыщенности : 4:2:0
Битовая глубина : 8 бит
Тип развёртки : Прогрессивная
Бит/(Пиксели*Кадры) : 0.151
Размер потока : 1,23 Гбайт (84%)
Библиотека кодирования : x264 core 152 r2851 ba24899
Настройки программы : cabac=1 / ref=14 / deblock=1:-1:-1 / analyse=0x3:0x133 / me=umh / subme=10 / psy=1 / psy_rd=1.00:0.15 / mixed_ref=1 / me_range=24 / chroma_me=1 / trellis=2 / 8x8dct=1 / cqm=0 / deadzone=21,11 / fast_pskip=1 / chroma_qp_offset=-3 / threads=6 / lookahead_threads=1 / sliced_threads=0 / nr=0 / decimate=1 / interlaced=0 / bluray_compat=0 / constrained_intra=0 / bframes=8 / b_pyramid=2 / b_adapt=2 / b_bias=0 / direct=3 / weightb=1 / open_gop=0 / weightp=2 / keyint=240 / keyint_min=23 / scenecut=40 / intra_refresh=0 / rc_lookahead=60 / rc=2pass / mbtree=0 / bitrate=2049 / ratetol=1.0 / qcomp=0.60 / qpmin=0 / qpmax=69 / qpstep=4 / cplxblur=20.0 / qblur=0.5 / vbv_maxrate=50000 / vbv_bufsize=62500 / nal_hrd=none / filler=0 / ip_ratio=1.40 / pb_ratio=1.30 / aq=1:1.00
Default : Да
Forced : Нет

Аудио #1
Идентификатор : 2
Формат : AC-3
Формат/Информация : Audio Coding 3
Параметр Endianness формата : Big
Идентификатор кодека : A_AC3
Продолжительность : 1 ч. 25 м.
Вид битрейта : Постоянный
Битрейт : 192 Кбит/сек
Каналы : 2 канала
Расположение каналов : Front: L R
Частота : 48,0 КГц
Частота кадров : 31,250 кадров/сек (1536 SPF)
Битовая глубина : 16 бит
Метод сжатия : С потерями
Размер потока : 118 Мбайт (8%)
Заголовок : L1 (Eraserhead)
Язык : Russian

Default : Да
Forced : Нет

Аудио #2
Идентификатор : 3
Формат : AC-3
Формат/Информация : Audio Coding 3
Параметр Endianness формата : Big
Идентификатор кодека : A_AC3
Продолжительность : 1 ч. 26 м.
Вид битрейта : Постоянный
Битрейт : 192 Кбит/сек
Каналы : 2 канала
Расположение каналов : Front: L R
Частота : 48,0 КГц
Частота кадров : 31,250 кадров/сек (1536 SPF)
Битовая глубина : 16 бит
Метод сжатия : С потерями
Размер потока : 118 Мбайт (8%)
Заголовок : Original
Язык : English

Default : Нет
Forced : Нет

Текст #1
Идентификатор : 4
Формат : UTF-8
Идентификатор кодека : S_TEXT/UTF8
Идентификатор кодека/Информация : UTF-8 Plain Text
Продолжительность : 1 ч. 24 м.
Битрейт : 88 бит/сек
ElementCount : 715
Размер потока : 54,4 Кбайт (0%)
Заголовок : Eraserhead
Язык : Russian
Default : Нет
Forced : Нет

Текст #2
Идентификатор : 5
Формат : UTF-8
Идентификатор кодека : S_TEXT/UTF8
Идентификатор кодека/Информация : UTF-8 Plain Text
Продолжительность : 1 ч. 22 м.
Битрейт : 51 бит/сек
ElementCount : 724
Размер потока : 31,4 Кбайт (0%)
Язык : English
Default : Нет
Forced : Нет

Меню
00:00:00.000 : en:00:00:00.000
00:00:14.056 : en:00:00:14.056
00:01:15.075 : en:00:01:15.075
00:01:18.787 : en:00:01:18.787
00:10:06.606 : en:00:10:06.606
00:32:08.927 : en:00:32:08.927
00:46:00.758 : en:00:46:00.758
00:50:57.054 : en:00:50:57.054
00:59:20.557 : en:00:59:20.557
01:06:38.995 : en:01:06:38.995
01:17:49.665 : en:01:17:49.665
01:25:32.085 : en:01:25:32.085



Скачать Этот.остров.Земля.This.Island.Earth.(Джозеф.М.Ньюман).[1955.фантастика.BDRip-AVC].[VO.(Eraserhead.Павел.Иванов)]+[Оригинал.Eng]+[Sub.Rus.Eng]x2.torrent без регистрации
Золото ЗОЛОТАЯ РАЗДАЧА! СКАЧАННОЕ НЕ ЗАСЧИТЫВАЕТСЯ! Золото
Дата: Зарегистрирован   [ Тип: внешний ] Как тут cкачать?
MAGNET ссылка
MAGNET ссылка


Скачать .torrent

16 KB

Статус: проверено DHT
Скачан: торрент - 9 раз, раздача полностью - 13 раз
Размер: 1,46 GB
Оценка:  - (Голосов: 0)
Поблагодарили: 0
Поделиться ссылкой на эту раздачу с друзьями:
В контактеFacebookОдноклассникиTwitterLivejournalМой МирLiveinternet
 

 
Показать сообщения:    


Вы не можете начинать темы
Вы не можете отвечать на сообщения
Вы не можете редактировать свои сообщения
Вы не можете удалять свои сообщения
Вы не можете голосовать в опросах
Вы не можете прикреплять файлы к сообщениям
Вы можете скачивать файлы