Loading...
Error

Скачать Медвежатник / The Score (Фрэнк Оз) [2001, триллер, драма, криминал, HDRip-AVC] [MVO]+[Sub Rus, Eng]x2 торрент без регистрации

Статистика раздачи
Размер:  748 MB   |    Скачан:  16 раз
Сидов:  1  [  0 KB/s  ]  
 
 
 
Автор Сообщение

Marsianka

[] 

Информация о фильме
Название: Медвежатник
Оригинальное название: The Score
Год выхода: 2001
Жанр: триллер, драма, криминал
Режиссер: Фрэнк Оз / Frank Oz
В ролях: Роберт Де Ниро, Эдвард Нортон, Марлон Брандо, Анджела Бассетт, Гэри Фармер, Пол Соулз, Джэми Харольд, Серж Уд, Жан-Рене Уэлле, Мартин Дрэнвиль

О фильме: Ник Уэллс — профессиональный взломщик сейфов. Он хочет порвать с криминальным прошлым, но его старый партнёр по нелегальному бизнесу Макс вынуждает его приступить к подготовке нового преступления. На этот раз целью злоумышленников становится скипетр французской королевской династии Бурбонов.



Страна: США, Германия
Студия: Paramount Pictures, Mandalay Pictures
Продолжительность: 02:04:02
Перевод: Профессиональный (многоголосый, закадровый) Позитив-Мультимедиа

Файл
Формат: MKV
Качество: HDRip-AVC
Видео: MPEG-4 AVC, 736x312 (2.35:1) at 23.976 fps, ~777 kbps
Аудио: AAC-HE, 2 ch, 48 kHz, ~64 kbps
Субтитры: русские, английские

Семпл
General
Unique ID : 134991426826699825842142597700973580047 (0x658E67329E0CC6585F1470A92BD94F0F)
Complete name : C:UsersDownloadsThe Score.2001.HDRip-AVC.mkv
Format : Matroska
Format version : Version 4 / Version 2
File size : 748 MiB
Duration : 2 h 4 min
Overall bit rate : 843 kb/s
Movie name : Медвежатник / The Score (2001)
Encoded date : UTC 2018-02-12 19:00:00
Writing application : mkvmerge v20.0.0 ('I Am The Sun') 64-bit
Writing library : libebml v1.3.5 + libmatroska v1.4.8

Video
ID : 1
Format : AVC
Format/Info : Advanced Video Codec
Format profile : High@L4.1
Format settings : CABAC / 10 Ref Frames
Format settings, CABAC : Yes
Format settings, RefFrames : 10 frames
Codec ID : V_MPEG4/ISO/AVC
Duration : 2 h 4 min
Bit rate : 777 kb/s
Width : 736 pixels
Height : 312 pixels
Display aspect ratio : 2.35:1
Frame rate mode : Constant
Frame rate : 23.976 (24000/1001) FPS
Color space : YUV
Chroma subsampling : 4:2:0
Bit depth : 8 bits
Scan type : Progressive
Bits/(Pixel*Frame) : 0.141
Stream size : 689 MiB (92%)
Writing library : x264 core 152 r2851M ba24899
Encoding settings : cabac=1 / ref=10 / deblock=1:-3:-3 / analyse=0x3:0x113 / me=umh / subme=11 / psy=1 / psy_rd=1.00:0.00 / mixed_ref=1 / me_range=48 / chroma_me=1 / trellis=2 / 8x8dct=1 / cqm=0 / deadzone=21,11 / fast_pskip=0 / chroma_qp_offset=-2 / threads=5 / lookahead_threads=1 / sliced_threads=0 / nr=0 / decimate=1 / interlaced=0 / bluray_compat=0 / constrained_intra=0 / bframes=10 / b_pyramid=2 / b_adapt=2 / b_bias=0 / direct=3 / weightb=1 / open_gop=0 / weightp=2 / keyint=250 / keyint_min=24 / scenecut=40 / intra_refresh=0 / rc=2pass / mbtree=0 / bitrate=777 / ratetol=1.0 / qcomp=0.60 / qpmin=0 / qpmax=69 / qpstep=4 / cplxblur=20.0 / qblur=0.5 / ip_ratio=1.40 / pb_ratio=1.30 / aq=2:1.00
Default : Yes
Forced : No

Audio
ID : 2
Format : AAC
Format/Info : Advanced Audio Codec
Format profile : HE-AAC / LC
Format settings : Implicit
Codec ID : A_AAC-2
Duration : 2 h 4 min
Bit rate : 64.0 kb/s
Channel(s) : 2 channels
Channel positions : Front: L R
Sampling rate : 48.0 kHz / 24.0 kHz
Frame rate : 23.438 FPS (1024 SPF)
Compression mode : Lossy
Stream size : 56.8 MiB (8%)
Language : Russian
Default : Yes
Forced : No

Text #1
ID : 3
Format : UTF-8
Codec ID : S_TEXT/UTF8
Codec ID/Info : UTF-8 Plain Text
Duration : 1 h 53 min
Bit rate : 81 b/s
Count of elements : 1099
Stream size : 68.0 KiB (0%)
Title : Full
Language : Russian
Default : Yes
Forced : No

Text #2
ID : 4
Format : UTF-8
Codec ID : S_TEXT/UTF8
Codec ID/Info : UTF-8 Plain Text
Duration : 1 h 53 min
Bit rate : 47 b/s
Count of elements : 1035
Stream size : 39.8 KiB (0%)
Title : Full
Language : English
Default : No
Forced : No



Скачать Медвежатник.The.Score.(Фрэнк.Оз).[2001.триллер.драма.криминал.HDRip-AVC].[MVO]+[Sub.Rus.Eng]x2.torrent без регистрации
Золото ЗОЛОТАЯ РАЗДАЧА! СКАЧАННОЕ НЕ ЗАСЧИТЫВАЕТСЯ! Золото
Дата: Зарегистрирован   [ Тип: внутренний ] Как тут cкачать?
MAGNET ссылка
MAGNET ссылка


Скачать .torrent

15 KB

Статус: проверено DHT
Скачан: торрент - 16 раз, раздача полностью - 0 раз
Размер: 748 MB
Оценка:  - (Голосов: 0)
Поблагодарили: 0
Поделиться ссылкой на эту раздачу с друзьями:
В контактеFacebookОдноклассникиTwitterLivejournalМой МирLiveinternet
 

 
Показать сообщения:    


Вы не можете начинать темы
Вы не можете отвечать на сообщения
Вы не можете редактировать свои сообщения
Вы не можете удалять свои сообщения
Вы не можете голосовать в опросах
Вы не можете прикреплять файлы к сообщениям
Вы можете скачивать файлы