Loading...
Error

Скачать Больше чем мёд / More Than Honey (Маркус Имхоф) [2012, документальный, BDRemux] [1080p] [DVO] торрент без регистрации

Статистика раздачи
Размер:  21,6 GB   |    Скачан:  9 раз

Полного источника не было: 23 минуты

 
 
 
Автор Сообщение

Marsianka

[] 

Информация о фильме
Название: Больше чем мёд
Оригинальное: More Than Honey
Год выхода: 2012
Жанр: документальный
Режиссер: Маркус Имхоф

О фильме:
Фильм о жизни пчёл, об их загадочной массовой гибели по всему миру, об опасностях, которые несёт им сегодняшняя цивилизация, и о том неоценимом вкладе, который они вносят в обеспечение человечества продовольствием, участвуя в опылении сельхозкультур вместе с китайцами, которым приходится это делать вручную. На примере изменения технологического процесса добычи мёда показано, как жажда прибыли и циничное отношение к труду вытесняет малое предпринимательство. Автор фильма берёт интервью у учёных и демонстрирует устройство пчелиной жизни, заглянув в самые укромные уголки улья и даже в пчелиный мозг.



Страна: Швейцария, Германия, Австрия
Продолжительность: 01:31:28
Перевод: Профессиональный (двухголосый закадровый)

Файл
Кодек: MPEG-4 AVC
Качество: BDRemux 1080p | P2
Видео: 1920x1080, 29,9 Мбит/с, 25 кадр/с
Звук: DTS-HD MA, 6 каналов, 3941 Кбит/с
Полное имя : C:БОЛЬШЕ ЧЕМ МЁД.mkv
Формат : Matroska
Версия формата : Version 4 / Version 2
Размер файла : 21,6 Гбайт
Продолжительность : 1 ч. 31 м.
Режим общего битрейта : Переменный
Общий поток : 33,8 Мбит/сек
Дата кодирования : UTC 2017-11-28 22:55:00
Программа кодирования : mkvmerge v18.0.0 ('Apricity') 64-bit
Библиотека кодирования : libebml v1.3.5 + libmatroska v1.4.8

Видео
Идентификатор : 1
Формат : AVC
Формат/Информация : Advanced Video Codec
Профиль формата : High@L4.1
Настройки формата : CABAC / 4 Ref Frames
Параметр CABAC формата : Да
Параметр RefFrames формата : 4 кадра
Идентификатор кодека : V_MPEG4/ISO/AVC
Продолжительность : 1 ч. 31 м.
Вид битрейта : Переменный
Битрейт : 29,9 Мбит/сек
Максимальный битрейт : 35,0 Мбит/сек
Ширина : 1920 пикселей
Высота : 1080 пикселей
Соотношение сторон : 16:9
Режим частоты кадров : Постоянный
Частота кадров : 25,000 кадров/сек
Цветовое пространство : YUV
Субдискретизация насыщенности : 4:2:0
Битовая глубина : 8 бит
Тип развёртки : MBAFF
Метод сохранения типа развёртки : Чередующиеся поля
Порядок развёртки : Верхнее поле первое
Бит/(Пиксели*Кадры) : 0.576
Размер потока : 19,1 Гбайт (88%)
Default : Нет
Forced : Нет
Цветовой диапазон : Limited
Основные цвета : BT.709
Характеристики трансфера : BT.709
Коэффициенты матрицы : BT.709

Аудио
Идентификатор : 2
Формат : DTS
Формат/Информация : Digital Theater Systems
Профиль формата : MA / Core
Идентификатор кодека : A_DTS
Продолжительность : 1 ч. 31 м.
Вид битрейта : Переменный / Постоянный
Битрейт : 3941 Кбит/сек / 1509 Кбит/сек
Каналы : 6 каналов
Расположение каналов : Front: L C R, Side: L R, LFE
Частота : 48,0 КГц
Частота кадров : 93,750 кадра/сек (512 SPF)
Битовая глубина : 24 бит
Метод сжатия : Без потерь / Lossy
Размер потока : 2,52 Гбайт (12%)
Заголовок : Франк Цветков и Ульяна Громова
Язык : Russian
Default : Да
Forced : Нет

Меню
00:00:00.000 : en:00:00:00.000
00:07:11.800 : en:00:07:11.800
00:20:06.800 : en:00:20:06.800
00:34:13.240 : en:00:34:13.240
00:38:18.000 : en:00:38:18.000
00:43:43.440 : en:00:43:43.440
00:51:21.600 : en:00:51:21.600
00:56:03.840 : en:00:56:03.840
01:01:01.680 : en:01:01:01.680
01:06:16.800 : en:01:06:16.800
01:15:11.600 : en:01:15:11.600
01:19:51.120 : en:01:19:51.120



Скачать Больше.чем.мёд.More.Than.Honey.(Маркус.Имхоф).[2012.документальный.BDRemux].[1080p].[DVO].torrent без регистрации
Золото ЗОЛОТАЯ РАЗДАЧА! СКАЧАННОЕ НЕ ЗАСЧИТЫВАЕТСЯ! Золото
Дата: Зарегистрирован   [ Тип: внутренний ] Как тут cкачать?
MAGNET ссылка
MAGNET ссылка


Скачать .torrent

55 KB

Статус: проверено DHT
Скачан: торрент - 9 раз, раздача полностью - 0 раз
Размер: 21,6 GB
Оценка:  - (Голосов: 0)
Поблагодарили: 0
Поделиться ссылкой на эту раздачу с друзьями:
В контактеFacebookОдноклассникиTwitterLivejournalМой МирLiveinternet
 

 
Показать сообщения:    


Вы не можете начинать темы
Вы не можете отвечать на сообщения
Вы не можете редактировать свои сообщения
Вы не можете удалять свои сообщения
Вы не можете голосовать в опросах
Вы не можете прикреплять файлы к сообщениям
Вы можете скачивать файлы