Loading...
Error

Скачать Ритуал / The Ritual (Дэвид Брукнер) [2017, ужасы, WEB-DL] [1080p] [DVO (Jimmy J)] торрент без регистрации

Статистика раздачи
Размер:  3,32 GB   |    Скачан:  20 раз
Сидов:  1  [  0 KB/s  ]  
 
 
 
Автор Сообщение

МихаНЕзатор

[] 

Информация о фильме
Название: Ритуал
Оригинальное название: The Ritual
Год выхода: 2017
Жанр: ужасы
Режиссер: Дэвид Брукнер

В ролях: Рейф Сполл, Роб Джеймс-Колльер, Сэм Тротон, Аршер Али, Пол Рейд, Керри МакЛин, Мария Эрвольтер

О фильме: Четверо бывших одноклассников отправляются в поход по горам и лесам, чтобы почтить память погибшего друга. Сначала они придерживаются общепринятого маршрута, но затем решают немного прогуляться в сторону от натоптанной тропы и находят в лесу странный дом...



Присутствует реклама!

Страна: USA
Студия: NETFLIX
Продолжительность: 01:34:06
Перевод: Любительский (двухголосый закадровый) Jimmy J.

Файл
Кодек: AVC
Качество: WEB-DL 1080p
Видео: ~ 4700 Кбит/с, 1920x958, 23.976 fps
Звук: Русский / AAC / 2.0 / 320kbs / 48 kHz

АНОНСЫ ПОПУЛЯРНЫХ РАЗДАЧ
General
Unique ID : 57940345995905001741336350091946243302 (0x2B96E79CA88B104C20BFAD29EAB434E6)
Complete name : The.Ritual.2018.1080p.WEB-DL.JimmyJ.mkv
Format : Matroska
Format version : Version 4 / Version 2
File size : 3.32 GiB
Duration : 1 h 34 min
Overall bit rate : 5 009 kb/s
Encoded date : UTC 2018-02-11 11:38:19
Writing application : mkvmerge v20.0.0 ('I Am The Sun') 64-bit
Writing library : libebml v1.3.5 + libmatroska v1.4.8

Video
ID : 1
Format : AVC
Format/Info : Advanced Video Codec
Format profile : Main@L4.1
Format settings : CABAC / 4 Ref Frames
Format settings, CABAC : Yes
Format settings, ReFrames : 4 frames
Codec ID : V_MPEG4/ISO/AVC
Duration : 1 h 34 min
Bit rate : 4 690 kb/s
Width : 1 920 pixels
Height : 958 pixels
Display aspect ratio : 2.004
Frame rate mode : Constant
Frame rate : 23.976 (24000/1001) FPS
Standard : NTSC
Color space : YUV
Chroma subsampling : 4:2:0
Bit depth : 8 bits
Scan type : Progressive
Bits/(Pixel*Frame) : 0.106
Stream size : 3.11 GiB (94%)
Language : English
Default : No
Forced : No
Color range : Limited
Color primaries : BT.709
Transfer characteristics : BT.709
Matrix coefficients : BT.709

Audio
ID : 2
Format : AAC
Format/Info : Advanced Audio Codec
Format profile : LC
Codec ID : A_AAC-2
Duration : 1 h 34 min
Bit rate : 317 kb/s
Channel(s) : 2 channels
Channel positions : Front: L R
Sampling rate : 48.0 kHz
Frame rate : 46.875 FPS (1024 SPF)
Compression mode : Lossy
Stream size : 215 MiB (6%)
Title : DVO JimmyJ
Language : Russian
Default : No
Forced : No



Скачать Ритуал.The.Ritual.(Дэвид.Брукнер).[2017.ужасы.WEB-DL].[1080p].[DVO.(Jimmy.J)].torrent без регистрации
Золото ЗОЛОТАЯ РАЗДАЧА! СКАЧАННОЕ НЕ ЗАСЧИТЫВАЕТСЯ! Золото
Дата: Зарегистрирован   [ Тип: внутренний ] Как тут cкачать?
MAGNET ссылка
MAGNET ссылка


Скачать .torrent

17 KB

Статус: проверено DHT
Скачан: торрент - 20 раз, раздача полностью - 36 раз
Размер: 3,32 GB
Оценка:  - (Голосов: 0)
Поблагодарили: 2
Поделиться ссылкой на эту раздачу с друзьями:
В контактеFacebookОдноклассникиTwitterLivejournalМой МирLiveinternet
 

 
Показать сообщения:    


Вы не можете начинать темы
Вы не можете отвечать на сообщения
Вы не можете редактировать свои сообщения
Вы не можете удалять свои сообщения
Вы не можете голосовать в опросах
Вы не можете прикреплять файлы к сообщениям
Вы можете скачивать файлы