Loading...
Error

Скачать Ритуал / The Ritual (Дэвид Брукнер) [2017, ужасы, триллер, мистика, WEB-DL] [1080p] [DVO (Sky Voices)]+[Eng]+[Sub Rus, Eng] торрент без регистрации

Статистика раздачи
Размер:  3,55 GB   |    Скачан:  23 раза
Сидов:  5  [  0 KB/s  ]  
 
 
 
Автор Сообщение

МихаНЕзатор

[] 

Оригинальное название: The Ritual
Год выпуска: 2017
Страна: Великобритания
Жанр: ужасы, триллер, мистика
Режиссер: Дэвид Брукнер

В ролях: Рейф Сполл, Роб Джеймс-Колльер, Сэм Тротон, Аршер Али, Пол Рейд, Керри МакЛин, Мария Эрвольтер

Сюжет фильма: Четверо бывших одноклассников отправляются в поход по горам и лесам, чтобы почтить память погибшего друга. Сначала они придерживаются общепринятого маршрута, но затем решают немного прогуляться в сторону от натоптанной тропы и находят в лесу странный дом.



Рекламы нет!

Продолжительность: 01:34:06
Перевод: Любительский (двухголосый закадровый) [Sky Voices]

Качество видео: WEB-DL/1080p
Формат файла: mkv
Видео: кодек: AVC, размер кадра: 1920x958, битрейт: 4700 кб/с
Аудио #1: Язык: русский, аудиокодек: AC3 5.1, битрейт аудио: 384 кб/с
Аудио #2: Язык: английский, аудиокодек: AC3 5.1, битрейт аудио: 384 кб/с
Субтитры: Русские (FOCS), английские

АНОНСЫ ПОПУЛЯРНЫХ РАЗДАЧ

General
Unique ID : 108860447849999206588004765205828292781 (0x51E5C276F07F44AD0299C175FE1D50AD)
Complete name : D:ФильмыThe.Ritual.2017.1080p.WEB-DL.DD5.1.(DVO.SKY.VOICES).H264-FGT.mkv
Format : Matroska
Format version : Version 4 / Version 2
File size : 3.55 GiB
Duration : 1 h 34 min
Overall bit rate : 5 400 kb/s
Encoded date : UTC 2018-02-09 11:03:13
Writing application : mkvmerge v20.0.0 ('I Am The Sun') 32-bit
Writing library : libebml v1.3.5 + libmatroska v1.4.8

Video
ID : 1
Format : AVC
Format/Info : Advanced Video Codec
Format profile : High@L4
Format settings, CABAC : Yes
Format settings, RefFrames : 4 frames
Codec ID : V_MPEG4/ISO/AVC
Duration : 1 h 34 min
Bit rate : 4 629 kb/s
Width : 1 920 pixels
Height : 958 pixels
Display aspect ratio : 2.004
Frame rate mode : Constant
Frame rate : 23.976 (23976/1000) FPS
Color space : YUV
Chroma subsampling : 4:2:0
Bit depth : 8 bits
Scan type : Progressive
Bits/(Pixel*Frame) : 0.105
Stream size : 3.04 GiB (86%)
Default : Yes
Forced : Yes
Color range : Limited
Color primaries : BT.709
Transfer characteristics : BT.709
Matrix coefficients : BT.709

Audio #1
ID : 2
Format : AC-3
Format/Info : Audio Coding 3
Format settings, Endianness : Big
Codec ID : A_AC3
Duration : 1 h 34 min
Bit rate mode : Constant
Bit rate : 384 kb/s
Channel(s) : 6 channels
Channel positions : Front: L C R, Side: L R, LFE
Sampling rate : 48.0 kHz
Frame rate : 31.250 FPS (1536 SPF)
Bit depth : 16 bits
Compression mode : Lossy
Stream size : 258 MiB (7%)
Title : DVO RUS - ТО «Sky Voices»
Language : Russian
Service kind : Complete Main
Default : Yes
Forced : Yes

Audio #2
ID : 3
Format : AC-3
Format/Info : Audio Coding 3
Format settings, Endianness : Big
Codec ID : A_AC3
Duration : 1 h 34 min
Bit rate mode : Constant
Bit rate : 384 kb/s
Channel(s) : 6 channels
Channel positions : Front: L C R, Side: L R, LFE
Sampling rate : 48.0 kHz
Frame rate : 31.250 FPS (1536 SPF)
Bit depth : 16 bits
Compression mode : Lossy
Stream size : 258 MiB (7%)
Title : ENG - Original
Language : English
Service kind : Complete Main
Default : No
Forced : No

Text #1
ID : 4
Format : UTF-8
Codec ID : S_TEXT/UTF8
Codec ID/Info : UTF-8 Plain Text
Duration : 1 h 26 min
Bit rate : 71 b/s
Count of elements : 810
Stream size : 45.0 KiB (0%)
Title : RUS (FOCS) Subtitle
Language : Russian
Default : No
Forced : No

Text #2
ID : 5
Format : UTF-8
Codec ID : S_TEXT/UTF8
Codec ID/Info : UTF-8 Plain Text
Duration : 1 h 26 min
Bit rate : 41 b/s
Count of elements : 819
Stream size : 26.2 KiB (0%)
Title : English Subtitle
Language : English
Default : No
Forced : No

Menu
00:00:00.000 : en:Chapter 1
00:10:06.731 : en:Chapter 2
00:17:04.815 : en:Chapter 3
00:26:09.734 : en:Chapter 4
00:36:45.411 : en:Chapter 5
00:44:52.189 : en:Chapter 6
00:55:33.079 : en:Chapter 7
01:03:48.491 : en:Chapter 8
01:12:47.363 : en:Chapter 9
01:19:14.875 : en:Chapter 10
01:30:11.656 : en:Chapter 11



Скачать Ритуал.The.Ritual.(Дэвид.Брукнер).[2017.ужасы.триллер.мистика.WEB-DL].[1080p].[DVO.(Sky.Voices)]+[Eng]+[Sub.Rus.Eng].torrent без регистрации
Золото ЗОЛОТАЯ РАЗДАЧА! СКАЧАННОЕ НЕ ЗАСЧИТЫВАЕТСЯ! Золото
Дата: Зарегистрирован   [ Тип: внешний ] Как тут cкачать?
MAGNET ссылка
MAGNET ссылка


Скачать .torrent

19 KB

Статус: проверено DHT
Скачан: торрент - 23 раз, раздача полностью - 15 раз
Размер: 3,55 GB
Оценка:  - (Голосов: 0)
Поблагодарили: 3
Поделиться ссылкой на эту раздачу с друзьями:
В контактеFacebookОдноклассникиTwitterLivejournalМой МирLiveinternet
 

 
Показать сообщения:    


Вы не можете начинать темы
Вы не можете отвечать на сообщения
Вы не можете редактировать свои сообщения
Вы не можете удалять свои сообщения
Вы не можете голосовать в опросах
Вы не можете прикреплять файлы к сообщениям
Вы можете скачивать файлы