Loading...
Error

Скачать Ритуал / The Ritual (Дэвид Брукнер) [2017, ужасы, WEB-DLRip-AVC] [DVO (Sky Voices)]+[Sub Rus] торрент без регистрации

Статистика раздачи
Размер:  1,46 GB   |    Скачан:  19 раз
Сидов:  6  [  0 KB/s  ]   Личеров:  1  [  0 KB/s  ]  
 
 
 
Автор Сообщение

МихаНЕзатор

[] 


Ритуал
The Ritual



Страна: Великобритания
Жанр: ужасы
Год выпуска: 2017
Режиссер: Дэвид Брукнер / David Bruckner

В ролях: Рейф Сполл, Роб Джеймс-Колльер, Сэм Тротон, Аршер Али, Пол Рейд, Керри МакЛин, Мария Эрвольтер, Jacob James Beswick, Francesca Mula

Описание: Четверо бывших одноклассников отправляются в поход по горам и лесам, чтобы почтить память погибшего друга. Сначала они придерживаются общепринятого маршрута, но затем решают немного прогуляться в сторону от натоптанной тропы и находят в лесу странный дом.

Релиз:
Автор рипа: stalkerok

Продолжительность: 01:34:06
Перевод: Любительский (двухголосый, закадровый) [ТО «Sky Voices»]
Субтитры: русские (полные - FOCS - ненормативная лексика!)
Оригинальная аудиодорожка: нет

Качество видео: WEB-DLRip-AVC [The.Ritual.2017.1080p.WEB-DL.DD5.1.H264-FGT]
Формат видео: MKV
Видео кодек: AVC
Аудио кодек: AC3
Видео: AVC, 1833 Кбит/сек, 1058x528 (2.004), 23,976 кадр/сек
Аудио: AC3, 384 Кбит/сек, 48 КГц, 5.1 - русский (ненормативная лексика!)
Навигация по главам: есть

АНОНСЫ ПОПУЛЯРНЫХ РАЗДАЧ


---[Information] [11.02.2018 20:18:47] x264 [info]: frame I:861 Avg QP:13.93 size: 65505
---[Information] [11.02.2018 20:18:47] x264 [info]: frame P:34309 Avg QP:17.07 size: 19988
---[Information] [11.02.2018 20:18:47] x264 [info]: frame B:100204 Avg QP:18.84 size: 5496

General
Unique ID : 216351116731170833550602615868028747656 (0xA2C3B59CA45D7C0FB3FBFCD5D755FF88)
Complete name : M:$newThe Ritual (2017)The.Ritual.2017.WEB-DLRip-AVC.RUS.stalkerok.new-team.mkv
Format : Matroska
Format version : Version 4 / Version 2
File size : 1.46 GiB
Duration : 1 h 34 min
Overall bit rate : 2 218 kb/s
Movie name : The Ritual (2017) (Rip by stalkerok)
Encoded date : UTC 2018-02-11 18:00:46
Writing application : mkvmerge v8.6.1 ('Flying') 64bit
Writing library : libebml v1.3.3 + libmatroska v1.4.4

Video
ID : 3
Format : AVC
Format/Info : Advanced Video Codec
Format profile : High@L4.1
Format settings, CABAC : Yes
Format settings, ReFrames : 12 frames
Codec ID : V_MPEG4/ISO/AVC
Duration : 1 h 34 min
Bit rate : 1 833 kb/s
Width : 1 058 pixels
Height : 528 pixels
Display aspect ratio : 2.004
Frame rate mode : Constant
Frame rate : 23.976 (24000/1001) FPS
Color space : YUV
Chroma subsampling : 4:2:0
Bit depth : 8 bits
Scan type : Progressive
Bits/(Pixel*Frame) : 0.137
Stream size : 1.20 GiB (83%)
Title : The Ritual (2017) (Rip by stalkerok)
Writing library : x264 core 152 r2851kMod ba24899
Encoding settings : cabac=1 / ref=12 / deblock=1:-3:-2 / analyse=0x3:0x133 / me=umh / subme=11 / psy=1 / fade_compensate=0.00 / psy_rd=1.00:0.00 / mixed_ref=1 / me_range=32 / chroma_me=1 / trellis=2 / 8x8dct=1 / cqm=0 / deadzone=21,11 / fast_pskip=0 / chroma_qp_offset=-2 / threads=12 / lookahead_threads=3 / sliced_threads=0 / nr=0 / decimate=0 / interlaced=0 / bluray_compat=0 / constrained_intra=0 / bframes=15 / b_pyramid=2 / b_adapt=2 / b_bias=0 / direct=3 / weightb=1 / open_gop=0 / weightp=2 / keyint=240 / keyint_min=23 / scenecut=40 / intra_refresh=0 / rc_lookahead=60 / rc=2pass / mbtree=0 / bitrate=1833 / ratetol=1.0 / qcomp=0.65 / qpmin=0 / qpmax=69 / qpstep=4 / cplxblur=20.0 / qblur=0.5 / vbv_maxrate=50000 / vbv_bufsize=62500 / nal_hrd=none / filler=0 / ip_ratio=1.40 / pb_ratio=1.30 / aq=3:0.80 / zones=129750,135373,q=34
Default : Yes
Forced : No

Audio
ID : 1
Format : AC-3
Format/Info : Audio Coding 3
Mode extension : CM (complete main)
Format settings, Endianness : Big
Codec ID : A_AC3
Duration : 1 h 34 min
Bit rate mode : Constant
Bit rate : 384 kb/s
Channel(s) : 6 channels
Channel positions : Front: L C R, Side: L R, LFE
Sampling rate : 48.0 kHz
Frame rate : 31.250 FPS (1536 spf)
Compression mode : Lossy
Stream size : 258 MiB (17%)
Title : DVO - ТО «Sky Voices»
Language : Russian
Default : Yes
Forced : No

Text
ID : 2
Format : UTF-8
Codec ID : S_TEXT/UTF8
Codec ID/Info : UTF-8 Plain Text
Duration : 1 h 26 min
Bit rate : 71 b/s
Count of elements : 810
Stream size : 45.0 KiB (0%)
Title : FOCS (Переводчики: Nichtingal, pyladean)
Language : Russian
Default : No
Forced : No

Menu
00:00:00.000 : en:Chapter 1
00:10:06.731 : en:Chapter 2
00:17:04.815 : en:Chapter 3
00:26:09.734 : en:Chapter 4
00:36:45.411 : en:Chapter 5
00:44:52.189 : en:Chapter 6
00:55:33.079 : en:Chapter 7
01:03:48.491 : en:Chapter 8
01:12:47.363 : en:Chapter 9
01:19:14.875 : en:Chapter 10
01:30:11.656 : en:Chapter 11



Скачать Ритуал.The.Ritual.(Дэвид.Брукнер).[2017.ужасы.WEB-DLRip-AVC].[DVO.(Sky.Voices)]+[Sub.Rus].torrent без регистрации
Золото ЗОЛОТАЯ РАЗДАЧА! СКАЧАННОЕ НЕ ЗАСЧИТЫВАЕТСЯ! Золото
Дата: Зарегистрирован   [ Тип: внешний ] Как тут cкачать?
MAGNET ссылка
MAGNET ссылка


Скачать .torrent

16 KB

Статус: проверено DHT
Скачан: торрент - 19 раз, раздача полностью - 14 раз
Размер: 1,46 GB
Оценка:  - (Голосов: 0)
Поблагодарили: 3
Поделиться ссылкой на эту раздачу с друзьями:
В контактеFacebookОдноклассникиTwitterLivejournalМой МирLiveinternet
 

 
Показать сообщения:    


Вы не можете начинать темы
Вы не можете отвечать на сообщения
Вы не можете редактировать свои сообщения
Вы не можете удалять свои сообщения
Вы не можете голосовать в опросах
Вы не можете прикреплять файлы к сообщениям
Вы можете скачивать файлы