Loading...
Error

Скачать Вор / Thief (Майкл Манн) [1981, боевик, триллер, драма, криминал, BDRip] [1080p] [MVO]+[AVO]x2+[DVO]x2+[Eng]x2+[Sub]x3 торрент без регистрации

Статистика раздачи
Размер:  22,46 GB   |    Скачан:  21 раз
Сидов:  1  [  0 KB/s  ]  
 
 
 
Автор Сообщение

Marsianka

[] 

Информация о фильме
Название: Вор
Оригинальное название: Thief
Год выхода: 1981
Жанр: боевик, триллер, драма, криминал
Режиссер: Майкл Манн
В ролях: Джеймс Каан, Джеймс Белуши, Тьюсдей Уэлд, Уилли Нельсон, Роберт Проски, Том Синьорелли, Дэннис Фарина, Джон Сантуччи, Гэвин МакФадьен, Чак Адамсон, Уолтер Скотт, Лора Стейли, Хэл Фрэнк, Дел Клоуз, Джон Капелос, Карен Берковичи, Майк Дженовезе, Уильям Л. Петерсен, Натан Дэвис, Томас О. Эрхарт мл., Мардж Котлиски, Дж. Джей Саундерс, Патти Росс, Рон Л. Кокс

О фильме:
Фрэнк - эксперт по вскрытию сейфов, профессионал высшей пробы, и работы для него всегда хватает. Но он уже побывал за решеткой, и возвращаться туда не собирается. Нужен всего один, но верный взлом. И тут дразнящая мечта о будущем заставляет его потерять осторожность: поддавшись искушению, матерый волк-одиночка соглашается поработать на крупного мафиози! Капкан захлопнулся, разовых контрактов с мафией не бывает. Лучший друг Фрэнка убит, любимая женщина - в руках бандитов, а сам он становится их собственностью…



Страна: США / Mann/Caan Productions
Продолжительность: 02:04:41
Перевод: Профессиональный многоголосый, авторский

Файл
Формат: MKV
Видео: 1920x1038 (1.850), 23.976 fps, AVC, 21993 kbps, 0.460 bits/pixel
Аудио 1: Russian, 48.0 KHz, DTS, 6 ch, 1510 Kbps - Двухголосый закадровый | 5.1 ch
Аудио 2: Russian, 48.0 KHz, AC3, 2 ch, 192 Kbps - Двухголосый закадровый | Mono
Аудио 3: Russian, 48.0 KHz, AC3, 2 ch, 192 Kbps - Одноголосый закадровый | Андрей Гаврилов
Аудио 4: Russian, 48.0 KHz, AC3, 2 ch, 192 Kbps - Одноголосый закадровый | Алексей Михалёв
Аудио 5: English, 48.0 KHz, DTS, 6 ch, 1510 Kbps - Original
Аудио 6: English, 48.0 KHz, AC3, 1 ch, 192 Kbps - Commentary
Субтитры: русские форсированные (на непереведенный голосом фрагмент), русские (полные), английские
x264 log
x264 [info]: 1920x1038p 1:1 @ 24000/1001 fps (cfr)
x264 [info]: color matrix: bt709
x264 [info]: using SAR=1/1
x264 [info]: using cpu capabilities: MMX2 SSE2Fast SSSE3 SSE4.2 AVX
x264 [info]: profile High, level 4.1
x264 [info]: started at Tue May 06 05:13:57 2014
x264 [info]: frame I:879 Avg QP:20.73 size:213416
x264 [info]: frame P:34284 Avg QP:21.43 size:127272
x264 [info]: frame B:144212 Avg QP:21.96 size:111064
x264 [info]: consecutive B-frames: 1.4% 1.3% 6.6% 4.6% 10.4% 65.8% 4.1% 1.4% 1.0% 2.5% 1.0%
x264 [info]: mb I I16..4: 21.5% 70.8% 7.6%
x264 [info]: mb P I16..4: 3.7% 20.5% 1.3% P16..4: 43.0% 15.9% 10.7% 0.2% 0.1% skip: 4.6%
x264 [info]: mb B I16..4: 1.9% 4.9% 0.5% B16..8: 43.5% 11.8% 3.0% direct:16.0% skip:18.5% L0:43.1% L1:42.4% BI:14.6%
x264 [info]: 8x8 transform intra:73.0% inter:48.1%
x264 [info]: direct mvs spatial:94.6% temporal:5.4%
x264 [info]: coded y,uvDC,uvAC intra: 95.7% 93.9% 83.0% inter: 55.1% 54.7% 25.0%
x264 [info]: i16 v,h,dc,p: 9% 4% 49% 37%
x264 [info]: i8 v,h,dc,ddl,ddr,vr,hd,vl,hu: 7% 8% 15% 11% 13% 12% 12% 11% 12%
x264 [info]: i4 v,h,dc,ddl,ddr,vr,hd,vl,hu: 7% 7% 9% 11% 14% 13% 13% 13% 14%
x264 [info]: i8c dc,h,v,p: 63% 12% 12% 13%
x264 [info]: Weighted P-Frames: Y:4.8% UV:2.5%
x264 [info]: ref P L0: 44.8% 7.5% 29.0% 17.1% 1.6% 0.0%
x264 [info]: ref B L0: 78.1% 17.7% 4.2%
x264 [info]: ref B L1: 86.2% 13.8%
x264 [info]: kb/s:21993.46
x264 [info]: encoded 179375 frames, 3.764 fps, 21993.45 kb/s, 19615 MB
x264 [info]: ended at Tue May 06 18:28:10 2014
x264 [info]: encoding duration 13:14:13

General
Unique ID : 233182936200668061873294263893400649125 (0xAF6D666222362DE3B7C62D0AF0827DA5)
Complete name : Thief.1981.BDRip.1080p.mkv
Format : Matroska
Format version : Version 4 / Version 2
File size : 22.5 GiB
Duration : 2h 4mn
Overall bit rate : 25.8 Mbps
Movie name : Thief (1981)
Encoded date : UTC 2014-06-05 16:13:40
Writing application : mkvmerge v6.9.1 ('Blue Panther') 64bit built on Apr 18 2014 18:23:38
Writing library : libebml v1.3.0 libmatroska v1.4.1
Attachment : Yes / Yes

Video
ID : 1
Format : AVC
Format/Info : Advanced Video Codec
Format profile : High@L4.1
Format settings, CABAC : Yes
Format settings, ReFrames : 4 frames
Codec ID : V_MPEG4/ISO/AVC
Duration : 2h 4mn
Bit rate : 22.0 Mbps
Width : 1 920 pixels
Height : 1 038 pixels
Display aspect ratio : 1.85:1
Frame rate mode : Constant
Frame rate : 23.976 fps
Color space : YUV
Chroma subsampling : 4:2:0
Bit depth : 8 bits
Scan type : Progressive
Bits/(Pixel*Frame) : 0.460
Stream size : 18.7 GiB (83%)
Title : SbR
Writing library : x264 core 142 r2431 42 c69a006 tMod [8-bit@4:2:0 X86_64]
Encoding settings : cabac=1 / ref=4 / deblock=1:-2:-2 / analyse=0x3:0x133 / me=umh / subme=10 / psy=1 / fade_compensate=0.00 / psy_rd=1.00:0.25 / mixed_ref=1 / me_range=32 / chroma_me=1 / trellis=2 / 8x8dct=1 / cqm=0 / deadzone=6,6 / fast_pskip=0 / chroma_qp_offset=-4 / threads=12 / lookahead_threads=3 / sliced_threads=0 / nr=0 / decimate=0 / interlaced=0 / bluray_compat=0 / constrained_intra=0 / fgo=0 / bframes=10 / b_pyramid=2 / b_adapt=2 / b_bias=0 / direct=3 / weightb=1 / open_gop=0 / weightp=2 / keyint=250 / keyint_min=23 / scenecut=40 / intra_refresh=0 / rc_lookahead=60 / rc=2pass / mbtree=1 / bitrate=22000 / ratetol=1.0 / qcomp=0.80 / qpmin=0:0:0 / qpmax=69:69:69 / qpstep=4 / cplxblur=20.0 / qblur=0.5 / vbv_maxrate=62500 / vbv_bufsize=78125 / nal_hrd=none / filler=0 / ip_ratio=1.10 / aq=1:0.50 / aq-sensitivity=10.00 / aq-factor=1.00:1.00:1.00 / aq2=0 / aq3=0
Language : English
Default : Yes
Forced : No
Color primaries : BT.709
Transfer characteristics : BT.709
Matrix coefficients : BT.709

Audio #1
ID : 2
Format : DTS
Format/Info : Digital Theater Systems
Mode : 16
Format settings, Endianness : Big
Codec ID : A_DTS
Duration : 2h 4mn
Bit rate mode : Constant
Bit rate : 1 509 Kbps
Channel(s) : 6 channels
Channel positions : Front: L C R, Side: L R, LFE
Sampling rate : 48.0 KHz
Bit depth : 24 bits
Compression mode : Lossy
Stream size : 1.31 GiB (6%)
Title : Двухголосый закадровый | 5.1 ch
Language : Russian
Default : Yes
Forced : No

Audio #2
ID : 3
Format : AC-3
Format/Info : Audio Coding 3
Mode extension : CM (complete main)
Format settings, Endianness : Big
Codec ID : A_AC3
Duration : 2h 4mn
Bit rate mode : Constant
Bit rate : 192 Kbps
Channel(s) : 2 channels
Channel positions : Front: L R
Sampling rate : 48.0 KHz
Bit depth : 16 bits
Compression mode : Lossy
Stream size : 171 MiB (1%)
Title : Двухголосый закадровый | Mono
Language : Russian
Default : No
Forced : No

Audio #3
ID : 4
Format : AC-3
Format/Info : Audio Coding 3
Mode extension : CM (complete main)
Format settings, Endianness : Big
Codec ID : A_AC3
Duration : 2h 4mn
Bit rate mode : Constant
Bit rate : 192 Kbps
Channel(s) : 2 channels
Channel positions : Front: L R
Sampling rate : 48.0 KHz
Bit depth : 16 bits
Compression mode : Lossy
Stream size : 171 MiB (1%)
Title : Одноголосый закадровый | Андрей Гаврилов
Language : Russian
Default : No
Forced : No

Audio #4
ID : 5
Format : AC-3
Format/Info : Audio Coding 3
Mode extension : CM (complete main)
Format settings, Endianness : Big
Codec ID : A_AC3
Duration : 2h 4mn
Bit rate mode : Constant
Bit rate : 192 Kbps
Channel(s) : 2 channels
Channel positions : Front: L R
Sampling rate : 48.0 KHz
Bit depth : 16 bits
Compression mode : Lossy
Stream size : 171 MiB (1%)
Title : Одноголосый закадровый | Алексей Михалёв
Language : Russian
Default : No
Forced : No

Audio #5
ID : 6
Format : DTS
Format/Info : Digital Theater Systems
Mode : 16
Format settings, Endianness : Big
Codec ID : A_DTS
Duration : 2h 4mn
Bit rate mode : Constant
Bit rate : 1 509 Kbps
Channel(s) : 6 channels
Channel positions : Front: L C R, Side: L R, LFE
Sampling rate : 48.0 KHz
Bit depth : 24 bits
Compression mode : Lossy
Stream size : 1.31 GiB (6%)
Title : Original
Language : English
Default : No
Forced : No

Audio #6
ID : 7
Format : AC-3
Format/Info : Audio Coding 3
Mode extension : CM (complete main)
Format settings, Endianness : Big
Codec ID : A_AC3
Duration : 2h 4mn
Bit rate mode : Constant
Bit rate : 192 Kbps
Channel(s) : 1 channel
Channel positions : Front: C
Sampling rate : 48.0 KHz
Bit depth : 16 bits
Compression mode : Lossy
Stream size : 171 MiB (1%)
Title : Commentary
Language : English
Default : No
Forced : No

Text #1
ID : 8
Format : UTF-8
Codec ID : S_TEXT/UTF8
Codec ID/Info : UTF-8 Plain Text
Language : Russian
Default : Yes
Forced : No

Text #2
ID : 9
Format : UTF-8
Codec ID : S_TEXT/UTF8
Codec ID/Info : UTF-8 Plain Text
Language : Russian
Default : No
Forced : No

Text #3
ID : 10
Format : UTF-8
Codec ID : S_TEXT/UTF8
Codec ID/Info : UTF-8 Plain Text
Language : English
Default : No
Forced : No

Menu
00:00:00.000 : en:High-line pros
00:11:54.422 : en:Rocket Used Cars
00:13:08.412 : en:Moving merchandise
00:15:16.707 : en:Letter from inside
00:16:51.010 : en:Sidewalk splatter
00:18:10.422 : en:"We have this problem"
00:22:22.799 : en:Okla
00:25:23.605 : en:The bank
00:30:10.266 : en:"I'm a thief"
00:35:08.773 : en:Something special
00:45:31.061 : en:Planning the score
00:47:29.555 : en:New home
00:47:55.247 : en:"I need a favor"
00:51:55.612 : en:Habeas corpus
00:53:40.175 : en:Fifth alarm
00:55:53.808 : en:A dead place
00:58:56.699 : en:Bumps, humps, and bugs
01:02:42.592 : en:"State your model"
01:06:47.962 : en:Code blue
01:09:28.706 : en:David
01:11:43.549 : en:"We are on"
01:14:32.551 : en:Taking a trimming
01:18:25.951 : en:Bait and switch
01:21:43.857 : en:Burning bar
01:33:31.939 : en:Sun and sand
01:36:58.687 : en:The way things are done
01:40:04.581 : en:Ambushed
01:42:45.075 : en:"I run you"
01:44:57.082 : en:No more dreams
01:50:04.472 : en:Destroying everything
01:53:42.690 : en:A free man



Скачать Вор.Thief.(Майкл.Манн).[1981.боевик.триллер.драма.криминал.BDRip].[1080p].[MVO]+[AVO]x2+[DVO]x2+[Eng]x2+[Sub]x3.torrent без регистрации
Золото ЗОЛОТАЯ РАЗДАЧА! СКАЧАННОЕ НЕ ЗАСЧИТЫВАЕТСЯ! Золото
Дата: Зарегистрирован   [ Тип: внутренний ] Как тут cкачать?
MAGNET ссылка
MAGNET ссылка


Скачать .torrent

113 KB

Статус: проверено DHT
Скачан: торрент - 21 раз, раздача полностью - 0 раз
Размер: 22,46 GB
Оценка:  - (Голосов: 0)
Поблагодарили: 0
Поделиться ссылкой на эту раздачу с друзьями:
В контактеFacebookОдноклассникиTwitterLivejournalМой МирLiveinternet
 

 
Показать сообщения:    


Вы не можете начинать темы
Вы не можете отвечать на сообщения
Вы не можете редактировать свои сообщения
Вы не можете удалять свои сообщения
Вы не можете голосовать в опросах
Вы не можете прикреплять файлы к сообщениям
Вы можете скачивать файлы