Loading...
Error

Скачать Гроб 2 / Coffin 2 (Кипп Трайббл) [2017, ужасы, триллер, криминал, WEB-DLRip] [720p] [MVO (GreenРай Studio)] торрент без регистрации

Статистика раздачи
Размер:  3,03 GB   |    Скачан:  22 раза
Сидов:  2  [  39 KB/s  ]  
 
 
 
Автор Сообщение

МихаНЕзатор

[] 

Информация о фильме
Название: Гроб 2
Оригинальное название: Coffin 2
Год выпуска: 2017
Жанр: ужасы, триллер, криминал
Режиссер: Кипп Трайббл

В ролях: Роберт Аллен Мюкс, Дезри Мари Велез, Лора Джеймс, Эрик Чаварриа, Джонни Алонсо, Чак Саэйл, Элиза Никсон, Санни Доенч, Мишель Мартин, Дэн Эванс

О фильме: Трик находится среди пяти парализованных заложников. Пока агент ФБР и бывший детектив прикладывают все возможные усилия, чтобы найти их, группа несчастных пытается выбраться и избежать ужасной кончины.



Внимание,имеется видео и аудио реклама от спонсора показа

Страна: США
Студия: MRP Entertainment
Продолжительность: 01:42:37
Перевод: Любительский многоголосый [GreenРай Studio]

Файл
Кодек: MKV (x.264)
Качество: WEB-DLRip 720
Видео: 4000 Кбит/с, 1280x720, 23.976 fps
Звук: Русский (MP3, 2 ch, 320 Кбит/с)

АНОНСЫ ПОПУЛЯРНЫХ РАЗДАЧ
eneral
Unique ID : 210201951415720354526879330754582231453 (0x9E236C5AC4B9536299A6B9A803AB399D)
Complete name : E:GreenRayCoffin.2.2017.P.WEB-DL.720p.mkv
Format : Matroska
Format version : Version 4 / Version 2
File size : 3.03 GiB
Duration : 1 h 42 min
Overall bit rate mode : Constant
Overall bit rate : 4 249 kb/s
Encoded date : UTC 2018-02-10 15:56:18
Writing application : mkvmerge v8.3.0 ('Over the Horizon') 64bit
Writing library : libebml v1.3.1 + libmatroska v1.4.2

Video
ID : 1
Format : AVC
Format/Info : Advanced Video Codec
Format profile : Main@L3.2
Format settings : CABAC / 3 Ref Frames
Format settings, CABAC : Yes
Format settings, ReFrames : 3 frames
Codec ID : V_MPEG4/ISO/AVC
Duration : 1 h 42 min
Bit rate mode : Constant
Bit rate : 4 000 kb/s
Width : 1 280 pixels
Height : 720 pixels
Display aspect ratio : 16:9
Frame rate mode : Constant
Frame rate : 23.976 (24000/1001) FPS
Standard : NTSC
Color space : YUV
Chroma subsampling : 4:2:0
Bit depth : 8 bits
Scan type : Progressive
Bits/(Pixel*Frame) : 0.181
Stream size : 2.80 GiB (92%)
Language : English
Default : Yes
Forced : No
Color range : Limited

Audio
ID : 2
Format : MPEG Audio
Format version : Version 1
Format profile : Layer 3
Format settings : Joint stereo
Codec ID : A_MPEG/L3
Codec ID/Hint : MP3
Duration : 1 h 42 min
Bit rate mode : Constant
Bit rate : 320 kb/s
Channel(s) : 2 channels
Sampling rate : 48.0 kHz
Frame rate : 41.667 FPS (1152 SPF)
Compression mode : Lossy
Stream size : 234 MiB (8%)
Default : Yes
Forced : No

Состав дикторов Дмитрий Кучеренко, Анастасия Гайдаржи, Андрей Данилко
Руководитель проекта и координатор: Евгений Овчаренко
Организатор и координатор: Никита Марков
Пиар менеджер студии: Гриша Чернозатонский
Техническая поддержка: Александр Методий



Скачать Гроб.2.Coffin.2.(Кипп.Трайббл).[2017.ужасы.триллер.криминал.WEB-DLRip].[720p].[MVO.(GreenРай.Studio)].torrent без регистрации
Золото ЗОЛОТАЯ РАЗДАЧА! СКАЧАННОЕ НЕ ЗАСЧИТЫВАЕТСЯ! Золото
Дата: Зарегистрирован   [ Тип: внутренний ] Как тут cкачать?
MAGNET ссылка
MAGNET ссылка


Скачать .torrent

16 KB

Статус: проверено DHT
Скачан: торрент - 22 раз, раздача полностью - 28 раз
Размер: 3,03 GB
Оценка:  - (Голосов: 0)
Поблагодарили: 2
Поделиться ссылкой на эту раздачу с друзьями:
В контактеFacebookОдноклассникиTwitterLivejournalМой МирLiveinternet
 

 
Показать сообщения:    


Вы не можете начинать темы
Вы не можете отвечать на сообщения
Вы не можете редактировать свои сообщения
Вы не можете удалять свои сообщения
Вы не можете голосовать в опросах
Вы не можете прикреплять файлы к сообщениям
Вы можете скачивать файлы