Loading...
Error

Скачать Ванильное небо / Vanilla Sky (Кэмерон Кроу) [2001, фантастика, психологический триллер, драма, детектив, ремейк, BDRip-AVC] [Dub]+[MVO]x7+[AVO]x3+[Оригинал Eng]+[Sub]x3 торрент без регистрации

Статистика раздачи
Размер:  6,84 GB   |    Скачан:  17 раз
Сидов:  1  [  0 KB/s  ]  
 
 
 
Автор Сообщение

Marsianka

[] 

Информация о фильме
Название: Ванильное небо
Оригинальное название: Vanilla Sky
Год выхода: 2001
Жанр: фантастика, психологический триллер, драма, детектив, ремейк
Режиссер: Кэмерон Кроу
В ролях: Том Круз, Пенелопа Крус, Кэмерон Диаз, Курт Расселл, Джейсон Ли, Ноа Тейлор, Тимоти Сполл, Тильда Суинтон, Майкл Шеннон, Ивана Миличевич, Алисия Уитт, Лора Фрейзер, Делайна Митчел, Шэлом Хэрлоу, Уна Харт, Джонни Галэки, Джейми Уилленс, Арманд Шульц, Кэмерон Уотсон, Робертсон Дин, У. Эрл Браун, Рэй Просиа, Тим Хоппер, Кен Леунг, Кэролин Бирн, Марк Пинтер, Джефф Уэйсс, Конан О'Брайен, Джеймс Мюрто, Марк Козелек, Джон Федевич, Бобби Уолш, Стэйси Шер, Фрэд Шруэрс, Джессика Сименс, Джулия Кэрозерс Хьюз, Холли Рэй, Марти Коллинс

О фильме:
У богатого плэйбоя Дэвида было все: деньги, свой собственный издательский дом, дорогая машина и квартира в респектабельном районе Нью-Йорка, друг-писатель и подружка Джулианна, даже враги, в лице семи управляющих его компанией, тоже были. Так он и жил без оглядки, пока в один прекрасный момент не встретил Софию. Его жизнь круто изменилась вскоре после этой встречи, Дэвид попал в автокатастрофу и очнулся после комы инвалидом с изуродованным лицом, которое приходится прикрывать «эстетическим протезом», а на самом деле простой маской. А дальше его новая жизнь обернулась кошмарным сном, от которого нельзя проснуться...



Страна: США , Испания
Студия: Paramount Pictures, Cruise/Wagner Productions, Vinyl Films
Продолжительность: 02:16:01
Перевод: Дублированный, профессиональный многоголосый, авторский одноголосый

Файл
Кодек: MPEG-4 AVC
Качество: BDRip-AVC
Видео: 2840 Кбит/с, 1024x576, 23.976 кадр/с
Русский (AC3, 2 ch, 192 Кбит/с), (AC3, 6 ch, 448 Кбит/с), украинский (AC3, 2 ch, 192 Кбит/с), английский (AC3, 6 ch, 448 Кбит/с)
Субтитры: Русские, английские, украинские

Аудио#1: Russian: 48 kHz, AC3, 3/2 (L,C,R,l,r) + LFE ch, ~448.00 kbps avg - Дублированный (R5)
Аудио#2: Russian: 48 kHz, AC3, 3/2 (L,C,R,l,r) + LFE ch, ~448.00 kbps avg - Профессиональный многоголосый (Карусель, v1)
Аудио#3: Russian: 48 kHz, AC3, 3/2 (L,C,R,l,r) + LFE ch, ~448.00 kbps avg - Профессиональный многоголосый (Карусель, v2)
Аудио#4: Russian: 48 kHz, AC3, 3/2 (L,C,R,l,r) + LFE ch, ~448.00 kbps avg - Профессиональный многоголосый (Медиакомплекс)
Аудио#5: Russian: 48 kHz, AC3, 2 (L,R) ch, ~192.00 kbps avg - Профессиональный многоголосый (ТНТ)
Аудио#6: Russian: 48 kHz, AC3, 2 (L,R) ch, ~192.00 kbps avg - Профессиональный многоголосый (DVD)
Аудио#7: English: 48 kHz, AC3, 3/2 (L,C,R,l,r) + LFE ch, ~448.00 kbps avg - Оригинал

Отдельно в папке:

Аудио#8: Russian: 48 kHz, AC3, 3/2 (L,C,R,l,r) + LFE ch, ~448.00 kbps avg - Авторский одноголосый (А.Завгородний)
Аудио#9: Russian: 48 kHz, AC3, 3/2 (L,C,R,l,r) + LFE ch, ~448.00 kbps avg - Авторский одноголосый (Ю. Живов)
Аудио#10: Russian: 48 kHz, AC3, 3/2 (L,C,R,l,r) + LFE ch, ~448.00 kbps avg - Авторский одноголосый (А.Багичев)
Аудио#11: Ukrainian: 48 kHz, AC3, 2 (L,R) ch, ~192.00 kbps avg - Профессиональный многоголосый (т/к К1)
Аудио#12: Ukrainian: 48 kHz, AC3, 2 (L,R) ch, ~192.00 kbps avg - Профессиональный многоголосый (т/к Новий)

Субтитры: Русские, украинские, английские
Рип от StarbirS

x264 [info]: frame I:1514 Avg QP:16.40 size: 72271
x264 [info]: frame P:40468 Avg QP:19.54 size: 30781
x264 [info]: frame B:153698 Avg QP:21.48 size: 10034
Формат : Matroska
Версия формата : Version 2
Размер файла : 5,20 Гбайт
Продолжительность : 2 ч. 16 м.
Общий поток : 5468 Кбит/сек
Название фильма : Vanilla.Sky.2001.x264.BDRip.AVC.Rus.Eng
Дата кодирования : UTC 2015-07-15 09:09:27
Программа кодирования : mkvmerge v7.9.0 ('Birds') 64bit
Библиотека кодирования : libebml v1.3.1 + libmatroska v1.4.2

Видео
Идентификатор : 1
Формат : AVC
Формат/Информация : Advanced Video Codec
Профиль формата : High@L4.1
Параметр CABAC формата : Да
Параметр ReFrames формата : 14 кадров
Идентификатор кодека : V_MPEG4/ISO/AVC
Продолжительность : 2 ч. 16 м.
Битрейт : 2840 Кбит/сек
Ширина : 1024 пикселя
Высота : 576 пикселей
Соотношение сторон : 16:9
Режим частоты кадров : Постоянный
Частота кадров : 23,976 кадра/сек
Цветовое пространство : YUV
Субдискретизация насыщенности : 4:2:0
Битовая глубина : 8 бит
Тип развёртки : Прогрессивная
Бит/(Пиксели*Кадры) : 0.201
Размер потока : 2,60 Гбайт (50%)
Заголовок : Vanilla.Sky.2001.x264.BDRip.AVC.Rus.Eng.by.StarbirS
Библиотека кодирования : x264 core 146 r2538 121396c
Настройки программы : cabac=1 / ref=14 / deblock=1:-3:-3 / analyse=0x3:0x113 / me=umh / subme=11 / psy=1 / psy_rd=1.15:0.15 / mixed_ref=1 / me_range=32 / chroma_me=1 / trellis=2 / 8x8dct=1 / cqm=0 / deadzone=21,11 / fast_pskip=0 / chroma_qp_offset=-3 / threads=12 / lookahead_threads=4 / sliced_threads=0 / nr=0 / decimate=0 / interlaced=0 / bluray_compat=0 / constrained_intra=0 / bframes=8 / b_pyramid=2 / b_adapt=2 / b_bias=0 / direct=3 / weightb=1 / open_gop=1 / weightp=2 / keyint=240 / keyint_min=23 / scenecut=40 / intra_refresh=0 / rc_lookahead=40 / rc=2pass / mbtree=0 / bitrate=2840 / ratetol=1.0 / qcomp=0.70 / qpmin=0 / qpmax=69 / qpstep=4 / cplxblur=20.0 / qblur=0.5 / vbv_maxrate=50000 / vbv_bufsize=62500 / nal_hrd=none / filler=0 / ip_ratio=1.40 / pb_ratio=1.30 / aq=1:0.80
Язык : English
Default : Да
Forced : Нет

Аудио #1
Идентификатор : 2
Формат : AC-3
Формат/Информация : Audio Coding 3
Расширение режима : CM (complete main)
Параметр Endianness формата : Big
Идентификатор кодека : A_AC3
Продолжительность : 2 ч. 16 м.
Вид битрейта : Постоянный
Битрейт : 448 Кбит/сек
Каналы : 6 каналов
Расположение каналов : Front: L C R, Side: L R, LFE
Частота : 48,0 КГц
Метод сжатия : С потерями
Размер потока : 436 Мбайт (8%)
Заголовок : Дублированный (R5)
Язык : Russian
Default : Да
Forced : Нет

Аудио #2
Идентификатор : 3
Формат : AC-3
Формат/Информация : Audio Coding 3
Расширение режима : CM (complete main)
Параметр Endianness формата : Big
Идентификатор кодека : A_AC3
Продолжительность : 2 ч. 16 м.
Вид битрейта : Постоянный
Битрейт : 448 Кбит/сек
Каналы : 6 каналов
Расположение каналов : Front: L C R, Side: L R, LFE
Частота : 48,0 КГц
Метод сжатия : С потерями
Размер потока : 436 Мбайт (8%)
Заголовок : Профессиональный многоголосый (Карусель, v1)
Язык : Russian
Default : Нет
Forced : Нет

Аудио #3
Идентификатор : 4
Формат : AC-3
Формат/Информация : Audio Coding 3
Расширение режима : CM (complete main)
Параметр Endianness формата : Big
Идентификатор кодека : A_AC3
Продолжительность : 2 ч. 16 м.
Вид битрейта : Постоянный
Битрейт : 448 Кбит/сек
Каналы : 6 каналов
Расположение каналов : Front: L C R, Side: L R, LFE
Частота : 48,0 КГц
Метод сжатия : С потерями
Размер потока : 436 Мбайт (8%)
Заголовок : Профессиональный многоголосый (Карусель, v2)
Язык : Russian
Default : Нет
Forced : Нет

Аудио #4
Идентификатор : 5
Формат : AC-3
Формат/Информация : Audio Coding 3
Расширение режима : CM (complete main)
Параметр Endianness формата : Big
Идентификатор кодека : A_AC3
Продолжительность : 2 ч. 16 м.
Вид битрейта : Постоянный
Битрейт : 448 Кбит/сек
Каналы : 6 каналов
Расположение каналов : Front: L C R, Side: L R, LFE
Частота : 48,0 КГц
Метод сжатия : С потерями
Размер потока : 436 Мбайт (8%)
Заголовок : Профессиональный многоголосый (Медиакомплекс)
Язык : Russian
Default : Нет
Forced : Нет

Аудио #5
Идентификатор : 6
Формат : AC-3
Формат/Информация : Audio Coding 3
Профиль формата : Dolby Digital
Расширение режима : CM (complete main)
Параметр Endianness формата : Big
Идентификатор кодека : A_AC3
Продолжительность : 2 ч. 16 м.
Вид битрейта : Постоянный
Битрейт : 192 Кбит/сек
Каналы : 2 канала
Расположение каналов : Front: L R
Частота : 48,0 КГц
Метод сжатия : С потерями
Размер потока : 187 Мбайт (4%)
Заголовок : Профессиональный многоголосый (ТНТ)
Язык : Russian
Default : Нет
Forced : Нет

Аудио #6
Идентификатор : 7
Формат : AC-3
Формат/Информация : Audio Coding 3
Профиль формата : Dolby Digital
Расширение режима : CM (complete main)
Параметр Endianness формата : Big
Идентификатор кодека : A_AC3
Продолжительность : 2 ч. 16 м.
Вид битрейта : Постоянный
Битрейт : 192 Кбит/сек
Каналы : 2 канала
Расположение каналов : Front: L R
Частота : 48,0 КГц
Метод сжатия : С потерями
Размер потока : 187 Мбайт (4%)
Заголовок : Профессиональный многоголосый (DVD)
Язык : Russian
Default : Нет
Forced : Нет

Аудио #7
Идентификатор : 8
Формат : AC-3
Формат/Информация : Audio Coding 3
Расширение режима : CM (complete main)
Параметр Endianness формата : Big
Идентификатор кодека : A_AC3
Продолжительность : 2 ч. 16 м.
Вид битрейта : Постоянный
Битрейт : 448 Кбит/сек
Каналы : 6 каналов
Расположение каналов : Front: L C R, Side: L R, LFE
Частота : 48,0 КГц
Метод сжатия : С потерями
Размер потока : 436 Мбайт (8%)
Язык : English
Default : Нет
Forced : Нет

Текст #1
Идентификатор : 9
Формат : UTF-8
Идентификатор кодека : S_TEXT/UTF8
Идентификатор кодека/Информация : UTF-8 Plain Text
Язык : Russian
Default : Нет
Forced : Нет

Текст #2
Идентификатор : 10
Формат : UTF-8
Идентификатор кодека : S_TEXT/UTF8
Идентификатор кодека/Информация : UTF-8 Plain Text
Язык : Ukrainian
Default : Нет
Forced : Нет

Текст #3
Идентификатор : 11
Формат : UTF-8
Идентификатор кодека : S_TEXT/UTF8
Идентификатор кодека/Информация : UTF-8 Plain Text
Язык : English
Default : Нет
Forced : Нет

Текст #4
Идентификатор : 12
Формат : UTF-8
Идентификатор кодека : S_TEXT/UTF8
Идентификатор кодека/Информация : UTF-8 Plain Text
Заголовок : SDH
Язык : English
Default : Нет
Forced : Нет

Меню
00:00:00.000 : en:00:00:00.000
00:06:24.301 : en:00:06:24.301
00:10:57.199 : en:00:10:57.199
00:15:10.702 : en:00:15:10.702
00:19:22.703 : en:00:19:22.703
00:22:46.865 : en:00:22:46.865
00:27:03.664 : en:00:27:03.664
00:30:29.953 : en:00:30:29.953
00:37:49.225 : en:00:37:49.225
00:43:36.113 : en:00:43:36.113
00:51:42.767 : en:00:51:42.767
00:54:52.456 : en:00:54:52.456
00:59:03.332 : en:00:59:03.332
01:06:41.247 : en:01:06:41.247
01:10:47.451 : en:01:10:47.451
01:13:08.091 : en:01:13:08.091
01:20:13.350 : en:01:20:13.350
01:24:01.328 : en:01:24:01.328
01:28:58.041 : en:01:28:58.041
01:33:06.664 : en:01:33:06.664
01:35:24.218 : en:01:35:24.218
01:42:40.362 : en:01:42:40.362
01:45:59.686 : en:01:45:59.686
01:52:34.039 : en:01:52:34.039
01:57:50.438 : en:01:57:50.438
02:01:42.002 : en:02:01:42.002
02:06:18.946 : en:02:06:18.946
02:09:20.460 : en:02:09:20.460



Скачать Ванильное.небо.Vanilla.Sky.(Кэмерон.Кроу).[2001.фантастика.психологический.триллер.драма.детектив.ремейк.BDRip-AVC].[Dub]+[MVO]x7+[AVO]x3+[Оригинал.Eng]+[Sub]x3.torrent без регистрации
Золото ЗОЛОТАЯ РАЗДАЧА! СКАЧАННОЕ НЕ ЗАСЧИТЫВАЕТСЯ! Золото
Дата: Зарегистрирован   [ Тип: внутренний ] Как тут cкачать?
MAGNET ссылка
MAGNET ссылка


Скачать .torrent

36 KB

Статус: проверено DHT
Скачан: торрент - 17 раз, раздача полностью - 0 раз
Размер: 6,84 GB
Оценка:  - (Голосов: 0)
Поблагодарили: 0
Поделиться ссылкой на эту раздачу с друзьями:
В контактеFacebookОдноклассникиTwitterLivejournalМой МирLiveinternet
 

 
Показать сообщения:    


Вы не можете начинать темы
Вы не можете отвечать на сообщения
Вы не можете редактировать свои сообщения
Вы не можете удалять свои сообщения
Вы не можете голосовать в опросах
Вы не можете прикреплять файлы к сообщениям
Вы можете скачивать файлы