Loading...
Error

Скачать Конец ствола / End of a Gun (Киони Ваксман) [2016, боевик, триллер, криминал, WEB-DL] [1080p] [MVO (лицензия iTunes)] торрент без регистрации

Статистика раздачи
Размер:  3,35 GB   |    Скачан:  29 раз
Сидов:  1  [  0 KB/s  ]  
 
 
 
Автор Сообщение

МихаНЕзатор

[] 

Год выпуска: 2016
Жанр: боевик, триллер, криминал, ...
В ролях: Стивен Сигал, Флорин Пьерсик мл., Джейд Ивен, Джейк Гродник, Джонатан Розенталь, Овидиу Никулеску, Клаудиу Блеонт, Александр Нгуйен
Режиссёр: Киони Ваксман

В ролях: Стивен Сигал, Флорин Пьерсик мл., Джейд Ивен, Джейк Гродник, Джонатан Розенталь, Александр Нгуйен

Описание: Декер является бывшим агентом ФБР и еле-еле сводит концы с концами в качестве охранника центра безопасности. Его задача только «наблюдать и сообщать» о деятельности, и не принимать меры. Но когда он приходит мимо женщины Лизы, которую избивает её бойфренд, Декер вынужден убить разъяренного мужчину, чтобы спасти ее. Вместо поздравлений и благодарности, Декер уволен за его героизм и ему грозит уголовное обвинение.
Лиза, зная его положение, просит ей помочь украсть $ 2 млн спрятанные в машине своего приятеля, которую конфисковала полиция. Они успешно возвращают деньги, но это ставит их в ещё большую опасность, так как деньги принадлежат наркобарону. Он пытается вернуть себе деньги, для чего нанимает целый отряд. Между тем, полицейские полны решимости и так же ищут Декера, который вынужден обратиться к своим союзникам, чтобы сохранить деньги, Лизу, и выжить в масштабной перестрелке с приспешниками вора в законе.



Страна: США
Продолжительность: 01:26:29
Перевод: Профессиональный (многоголосый, закадровый) | iTunes
Субтитры: Нет

Качество: WEB-DL 1080p
Формат: MKV
Видео кодек: AVC
Аудио кодек: AC-3
Видео: AVC, 5046, Кбит/с, 1920x1080, 23.976 кадр/с
Аудио: AC-3, 6 ch, 384 kbps, 48,0 KHz

АНОНСЫ ПОПУЛЯРНЫХ РАЗДАЧ

Общее
Уникальный идентификатор : 251722497932564195737334812692596511566 (0xBD5FFD595654B1A3AD5ACB39C745D34E)
Полное имя : D:Конец стволаEND_OF_A_GUN_2016_WEB_DL_1080p-BLUEBIRD.mkv
Формат : Matroska
Версия формата : Version 4 / Version 2
Размер файла : 3,35 Гбайт
Продолжительность : 1 ч. 26 м.
Общий поток : 5540 Кбит/сек
Название фильма : END_OF_A_GUN_2016_WEB_DL_1080p-BLUEBIRD
Дата кодирования : UTC 2018-02-19 19:24:55
Программа кодирования : mkvmerge v6.9.1 ('Blue Panther') 32bit built on Apr 18 2014 18:15:44
Библиотека кодирования : libebml v1.3.0 + libmatroska v1.4.1

Видео
Идентификатор : 1
Формат : AVC
Формат/Информация : Advanced Video Codec
Профиль формата : High@L4
Параметр CABAC формата : Да
Параметр ReFrames формата : 4 кадра
Идентификатор кодека : V_MPEG4/ISO/AVC
Продолжительность : 1 ч. 26 м.
Битрейт : 5046 Кбит/сек
Ширина : 1920 пикселей
Высота : 1080 пикселей
Соотношение сторон : 16:9
Режим частоты кадров : Постоянный
Частота кадров : 23,976 (24000/1001) кадра/сек
Цветовое пространство : YUV
Субдискретизация насыщенности : 4:2:0
Битовая глубина : 8 бит
Тип развёртки : Прогрессивная
Бит/(Пиксели*Кадры) : 0.101
Размер потока : 3,05 Гбайт (91%)
Заголовок : END_OF_A_GUN_2016_WEB_DL_1080p-BLUEBIRD
Язык : English
Default : Да
Forced : Нет
Цветовой диапазон : Limited
Основные цвета : BT.709
Характеристики трансфера : BT.709
Коэффициенты матрицы : BT.709

Аудио
Идентификатор : 2
Формат : AC-3
Формат/Информация : Audio Coding 3
Параметр Endianness формата : Big
Идентификатор кодека : A_AC3
Продолжительность : 1 ч. 26 м.
Вид битрейта : Постоянный
Битрейт : 384 Кбит/сек
Каналы : 6 каналов
Расположение каналов : Front: L C R, Side: L R, LFE
Частота : 48,0 КГц
Частота кадров : 31,250 кадров/сек (1536 spf)
Битовая глубина : 16 бит
Метод сжатия : С потерями
Размер потока : 238 Мбайт (7%)
Заголовок : [MVO] DD 5.1 @ 384 kbps (iTunes)
Язык : Russian
ServiceKind/ : Complete Main
Default : Да
Forced : Нет

Меню
00:00:00.000 : en:Глава 1
00:07:12.766 : en:Глава 2
00:14:18.358 : en:Глава 3
00:21:25.493 : en:Глава 4
00:28:47.935 : en:Глава 5
00:36:20.762 : en:Глава 6
00:43:42.620 : en:Глава 7
00:51:31.463 : en:Глава 8
01:01:17.048 : en:Глава 9
01:09:27.288 : en:Глава 10
01:16:37.009 : en:Глава 11



Скачать Конец.ствола.End.of.a.Gun.(Киони.Ваксман).[2016.боевик.триллер.криминал.WEB-DL].[1080p].[MVO.(лицензия.iTunes)].torrent без регистрации
Золото ЗОЛОТАЯ РАЗДАЧА! СКАЧАННОЕ НЕ ЗАСЧИТЫВАЕТСЯ! Золото
Дата: Зарегистрирован   [ Тип: внутренний ] Как тут cкачать?
MAGNET ссылка
MAGNET ссылка


Скачать .torrent

18 KB

Статус: проверено DHT
Скачан: торрент - 29 раз, раздача полностью - 16 раз
Размер: 3,35 GB
Оценка:  - (Голосов: 0)
Поблагодарили: 2
Поделиться ссылкой на эту раздачу с друзьями:
В контактеFacebookОдноклассникиTwitterLivejournalМой МирLiveinternet
 

 
Показать сообщения:    


Вы не можете начинать темы
Вы не можете отвечать на сообщения
Вы не можете редактировать свои сообщения
Вы не можете удалять свои сообщения
Вы не можете голосовать в опросах
Вы не можете прикреплять файлы к сообщениям
Вы можете скачивать файлы