Loading...
Error

Скачать Время желаний (Юлий Райзман) [1984, мелодрама, DVDRip-AVC] [Оригинал Rus] торрент без регистрации

Статистика раздачи
Размер:  1,42 GB   |    Скачан:  17 раз

Полного источника не было: 26 минут

 
 
 
Автор Сообщение

Marsianka

[] 

Информация о фильме
Название: Время желаний
Год выхода: 1984
Жанр: мелодрама
Режиссер: Юлий Райзман
В ролях: Вера Алентова, Анатолий Папанов, Татьяна Егорова, Владислав Стржельчик, Алексей Михайлов, Владимир Антоник, Станислав Житарев, Борис Иванов, Людмила Стоянова, Зоя Степанова, Валентин Грачев, Сергей Голованов Валентина Ушакова, Мария Кремнева, Татьяна Гурко, Татьяна Степанова, Евгений Марков, Вадим Грачев, Эдуард Изотов, Евгений Жуков

О фильме:
События происходят в СССР, в 1980-х годах. Светлана Васильевна, красивая предприимчивая женщина в возрасте "за тридцать", очень хочет выйти замуж за солидного человека. Подруги знакомят ее с Владимиром Дмитриевичем. Он - немолодой, не суетный и скромный. Казалось бы, у этих людей нет ничего общего...



Страна: СССР, Мосфильм
Продолжительность: 01:37:11
Перевод: Оригинал

Файл
Качество: DVDRip-AVC
Видео: AVC/H.264, 720x520, ~1 900 kbps
Аудио: AC3, 2 ch, 192 kbps
Общее
Уникальный идентификатор : 227497445538340337193037484388872386056 (0xAB266A0D2A5D69B5B4F3B02A4A607608)
Полное имя : D:Советские фильмыПапанов Анатолий ДмитриевичВремя желанийВремя желаний. 1994.mkv
Формат : Matroska
Версия формата : Version 4 / Version 2
Размер файла : 1,42 Гбайт
Продолжительность : 1 ч. 37 м.
Общий поток : 2094 Кбит/сек
Название фильма : Release for Topmost
Дата кодирования : UTC 2018-02-23 04:49:54
Программа кодирования : mkvmerge v6.2.0 ('Promised Land') built on Apr 28 2013 12:22:01
Библиотека кодирования : libebml v1.3.0 + libmatroska v1.4.0
Attachment : Yes

Видео
Идентификатор : 1
Формат : AVC
Формат/Информация : Advanced Video Codec
Профиль формата : High@L4.1
Параметр CABAC формата : Да
Параметр ReFrames формата : 12 кадров
Идентификатор кодека : V_MPEG4/ISO/AVC
Продолжительность : 1 ч. 37 м.
Битрейт : 1900 Кбит/сек
Ширина : 720 пикселей
Высота : 520 пикселей
Соотношение сторон : 1,385
Режим частоты кадров : Постоянный
Частота кадров : 25,000 кадров/сек
Цветовое пространство : YUV
Субдискретизация насыщенности : 4:2:0
Битовая глубина : 8 бит
Тип развёртки : Прогрессивная
Бит/(Пиксели*Кадры) : 0.203
Размер потока : 1,26 Гбайт (89%)
Заголовок : Время желаний. 1984 (Release for Topmost)
Библиотека кодирования : x264 core 146 r2538 121396c
Настройки программы : cabac=1 / ref=12 / deblock=1:-3:-3 / analyse=0x3:0x113 / me=umh / subme=11 / psy=1 / psy_rd=1.00:0.15 / mixed_ref=1 / me_range=32 / chroma_me=1 / trellis=2 / 8x8dct=1 / cqm=0 / deadzone=21,11 / fast_pskip=0 / chroma_qp_offset=-3 / threads=12 / lookahead_threads=2 / sliced_threads=0 / nr=0 / decimate=0 / interlaced=0 / bluray_compat=0 / constrained_intra=0 / bframes=8 / b_pyramid=2 / b_adapt=2 / b_bias=0 / direct=3 / weightb=1 / open_gop=0 / weightp=2 / keyint=240 / keyint_min=23 / scenecut=40 / intra_refresh=0 / rc_lookahead=40 / rc=2pass / mbtree=1 / bitrate=1900 / ratetol=1.0 / qcomp=0.60 / qpmin=0 / qpmax=69 / qpstep=4 / cplxblur=20.0 / qblur=0.5 / ip_ratio=1.40 / aq=1:0.90
Язык : Russian
Default : Да
Forced : Нет

Аудио
Идентификатор : 2
Формат : AC-3
Формат/Информация : Audio Coding 3
Расширение режима : CM (complete main)
Параметр Endianness формата : Big
Идентификатор кодека : A_AC3
Продолжительность : 1 ч. 37 м.
Вид битрейта : Постоянный
Битрейт : 192 Кбит/сек
Каналы : 2 канала
Расположение каналов : Front: L R
Частота : 48,0 КГц
Битовая глубина : 16 бит
Метод сжатия : С потерями
Размер потока : 133 Мбайт (9%)
Заголовок : AC3, 2/0 (L,R), ~192.00 kbps
Язык : Russian
Default : Да
Forced : Нет



Скачать Время.желаний.(Юлий.Райзман).[1984.мелодрама.DVDRip-AVC].[Оригинал.Rus].torrent без регистрации
Золото ЗОЛОТАЯ РАЗДАЧА! СКАЧАННОЕ НЕ ЗАСЧИТЫВАЕТСЯ! Золото
Дата: Зарегистрирован   [ Тип: внутренний ] Как тут cкачать?
MAGNET ссылка
MAGNET ссылка


Скачать .torrent

15 KB

Статус: проверено DHT
Скачан: торрент - 17 раз, раздача полностью - 1 раз
Размер: 1,42 GB
Оценка:  - (Голосов: 0)
Поблагодарили: 0
Поделиться ссылкой на эту раздачу с друзьями:
В контактеFacebookОдноклассникиTwitterLivejournalМой МирLiveinternet
 

 
Показать сообщения:    


Вы не можете начинать темы
Вы не можете отвечать на сообщения
Вы не можете редактировать свои сообщения
Вы не можете удалять свои сообщения
Вы не можете голосовать в опросах
Вы не можете прикреплять файлы к сообщениям
Вы можете скачивать файлы