Loading...
Error

Скачать Эш против Зловещих мертвецов / Ash vs Evil Dead (Сезон 03) (Майкл Херст, Рик Джейкобсон, Сэм Рэйми) [2018, Чёрная комедия, боевик, ужасы, WEB-DL] [1080p] [MVO] (AlexFilm) + [Orig] торрент без регистрации

Статистика раздачи
Размер:  20,65 GB   |    Скачан:  87 раз
Сидов:  1  [  0 KB/s  ]  
 
 
 
Автор Сообщение

leon030982

[] 

Эш против Зловещих мертвецов / Ash vs Evil Dead

Год выпуска: 2018
Страна: США
Жанр: ужасы, боевик, комедия
Продолжительность: ~ 00:30:00
Озвучание: Профессиональное (многоголосое закадровое) (AlexFilm)

Режиссёр: Майкл Херст, Рик Джейкобсон, Сэм Рэйми

В ролях: Брюс Кэмпбелл, Джилл Мари Джонс, Дэна ДеЛоренцо, Люси Лоулесс, Рэй Сантьяго, Мими Роджерс, Хемки Мадера, Фил Пелетон, Ido Drent, Дэмиен Гарви и другие

Описание: Последние тридцать лет Эш старательно избегал всего, что связано с воспоминаниями о зловещих мертвецах, но когда очередное нашествие дедайтов грозит уничтожить все все население планеты, Эш становится единственным шансом человечества на спасение.

Релиз:

Перевод: Константин Кривоногов
Монтаж и сведение звука: Михаил Шорыгин
Роли озвучивали:
Светлана Чистохина
Екатерина Муравицкая
Михаил Алексеев
Кирилл Патрино
Михаил Суслов



Качество: WEB-DL 1080p
Формат: MKV
Видео: 1920x1080 (16:9), 23,976 fps, MPEG-4 AVC, ~9400 kbps avg, 0.189 bit/pixel
Аудио Rus: 48 kHz, AC3 Dolby Digital, 2/0 (L,R) ch, ~384.00 kbps
Аудио Eng: 48 kHz, AC3 Dolby Digital, 2/0 (L,R) ch, ~384.00 kbps
Субтитры: нет

Добавлена 10-я серия!
General
Unique ID : 224689174377540694410847196106652714212 (0xA9098F97E2A0298E9EB39295300904E4)
Complete name : E:\Ash vs Evil Dead - Season 3 (AlexFilm) WEB-DL 1080p\Ash.vs.Evil.Dead.s03e01.WEB-DL.1080p.Rus.Eng.AlexFilm.mkv
Format : Matroska
Format version : Version 4 / Version 2
File size : 2.00 GiB
Duration : 27 min 32 s
Overall bit rate mode : Variable
Overall bit rate : 10.4 Mb/s
Encoded date : UTC 2018-02-26 06:11:40
Writing application : mkvmerge v6.1.0 ('Old Devil') built on Mar 4 2013 09:10:42
Writing library : libebml v1.3.0 + libmatroska v1.4.0

Video
ID : 1
Format : AVC
Format/Info : Advanced Video Codec
Format profile : High@L4
Format settings : CABAC / 4 Ref Frames
Format settings, CABAC : Yes
Format settings, RefFrames : 4 frames
Codec ID : V_MPEG4/ISO/AVC
Duration : 27 min 32 s
Bit rate mode : Variable
Bit rate : 9 403 kb/s
Maximum bit rate : 15.0 Mb/s
Width : 1 920 pixels
Height : 1 080 pixels
Display aspect ratio : 16:9
Frame rate mode : Constant
Frame rate : 23.976 (24000/1001) FPS
Color space : YUV
Chroma subsampling : 4:2:0
Bit depth : 8 bits
Scan type : Progressive
Bits/(Pixel*Frame) : 0.189
Stream size : 1.81 GiB (91%)
Language : English
Default : Yes
Forced : No
Color range : Limited
Color primaries : BT.709
Transfer characteristics : BT.709
Matrix coefficients : BT.709

Audio #1
ID : 2
Format : AC-3
Format/Info : Audio Coding 3
Format settings, Endianness : Big
Codec ID : A_AC3
Duration : 27 min 32 s
Bit rate mode : Constant
Bit rate : 384 kb/s
Channel(s) : 6 channels
Channel positions : Front: L C R, Side: L R, LFE
Sampling rate : 48.0 kHz
Frame rate : 31.250 FPS (1536 SPF)
Bit depth : 16 bits
Compression mode : Lossy
Delay relative to video : -71 ms
Stream size : 75.6 MiB (4%)
Title : DD 5.1 AlexFilm
Language : Russian
Service kind : Complete Main
Default : Yes
Forced : No

Audio #2
ID : 3
Format : AC-3
Format/Info : Audio Coding 3
Format settings, Endianness : Big
Codec ID : A_AC3
Duration : 27 min 32 s
Bit rate mode : Constant
Bit rate : 384 kb/s
Channel(s) : 6 channels
Channel positions : Front: L C R, Side: L R, LFE
Sampling rate : 48.0 kHz
Frame rate : 31.250 FPS (1536 SPF)
Bit depth : 16 bits
Compression mode : Lossy
Delay relative to video : -71 ms
Stream size : 75.6 MiB (4%)
Title : Eng
Language : English
Service kind : Complete Main
Default : No
Forced : No

Внимание! Раздача ведётся путём добавления новых серий; при каждом добавлении создаётся новый торрент. Чтобы начать докачку новой серии, пользователям необходимо сделать следующее:
(1) остановить скачивание,
(2) удалить старый торрент у себя из клиента (старые серии удалять не надо),
(3) скачать новый торрент и запустить его у себя в клиенте вместо старого, при этом указать клиенту путь в старую папку куда и должно происходить скачивание новых серий.
Ваш клиент при этом должен произвести хеширование (проверку) старой папки (если не производит сам - помогите ему сделать это), и будет докачивать только те серии которых у вас ещё нет. Старые серии при этом не удаляются, а продолжают раздаваться!
Eсли вы уже удалили старые серии, то предотвратить повторную закачку старых серий можно, отжав галочку в соответствующих местах при запуске нового торрента. По возможности, желательно не удалять старые серии как можно дольше чтобы релизёр не столько продолжал раздавать старые серии, а смог сконцентрироваться на новых.



Скачать Эш.против.Зловещих.мертвецов.Ash.vs.Evil.Dead.(Сезон.03).(Майкл.Херст.Рик.Джейкобсон.Сэм.Рэйми).[2018.Чёрная.комедия.боевик.ужасы.WEB-DL].[1080p].[MVO].(AlexFilm).+.[Orig].torrent без регистрации
Золото ЗОЛОТАЯ РАЗДАЧА! СКАЧАННОЕ НЕ ЗАСЧИТЫВАЕТСЯ! Золото
Дата: Зарегистрирован   [ Тип: внутренний ] Как тут cкачать?
MAGNET ссылка
MAGNET ссылка


Скачать .torrent

105 KB

Статус: проверено DHT
Скачан: торрент - 87 раз, раздача полностью - 1 раз
Размер: 20,65 GB
Оценка:  - (Голосов: 0)
Поблагодарили: 0
Поделиться ссылкой на эту раздачу с друзьями:
В контактеFacebookОдноклассникиTwitterLivejournalМой МирLiveinternet
 

 
Показать сообщения:    


Вы не можете начинать темы
Вы не можете отвечать на сообщения
Вы не можете редактировать свои сообщения
Вы не можете удалять свои сообщения
Вы не можете голосовать в опросах
Вы не можете прикреплять файлы к сообщениям
Вы можете скачивать файлы