Loading...
Error

Скачать Убойный футбол / Шаолиньский футбол / Shaolin Soccer / Siu lam juk kau (Стивен Чоу) [2001, боевик, комедия, спорт, BDRip-AVC] [Китайская версия] [VO] (allecs2010) + [Sub] Rus + [Original] Chi торрент без регистрации

Статистика раздачи
Размер:  2,93 GB   |    Скачан:  16 раз
Сидов:  1  [  0 KB/s  ]  
 
 
 
Автор Сообщение

leon030982

[] 

Убойный футбол / Шаолиньский футбол / Shaolin Soccer / Siu lam juk kau / Китайская версия


Год выпуска: 2001
Страна: Гонконг, Китай
Жанр: боевик, комедия, спорт
Продолжительность: 01:52:22
Перевод: Любительский (одноголосый закадровый) allecs2010
Субтитры: русские

Режиссер: Стивен Чоу / Stephen Chow

В ролях: Стивен Чоу, Мэн Тат ЭнДжи, Чжао Вэй, Йин Тсе, Хуи Ли, Сесилия Чунг, Карен Мок, Винсент Кок, Кай Мэн Тинь, Лам Чи Чунг

Описание: Шесть братьев под руководством опытного футбольного тренера создают непобедимую команду. Объединив неоценимый опыт древних мастеров кунг-фу и современную тактику футбольного боя, они подают заявку на участие в престижном футбольном первенстве с призом в миллион долларов…



Качество видео: BDRip-AVC
Формат видео: MKV
Видео: AVC; 880x496 (16:9); 3000 Kbps; 23,976 fps; 0,287 bpp
Аудио 1: русский / AC3 / 5.1 / 48 kHz / 448 kbps / 16 bits || VO
Аудио 2: китайский / AAC LC; 48 kHz; 6 ch; 16 bit; 280 kbps
Формат субтитров: softsub (SRT)
General
Unique ID : 218672403885549051980108934802681750206 (0xA482C5E79DBB88AA8B3BCB936B35E2BE)
Complete name : C:\Users\ALEX\Desktop\Фильмы\Shaolin Soccer.Siu lam juk kau.Chinese version.2001.RUS.CHI.BDRip-AVC.x264.AC3.AAC.Sub.mkv
Format : Matroska
Format version : Version 4 / Version 2
File size : 2.93 GiB
Duration : 1 h 52 min
Overall bit rate : 3 732 kb/s
Movie name : Shaolin Soccer.Siu lam juk kau.Chinese version
Encoded date : UTC 2018-02-28 13:37:41
Writing application : mkvmerge v8.5.2 ('Crosses') 64bit
Writing library : libebml v1.3.3 + libmatroska v1.4.4

Video
ID : 1
Format : AVC
Format/Info : Advanced Video Codec
Format profile : High@L3.2
Format settings : CABAC / 11 Ref Frames
Format settings, CABAC : Yes
Format settings, RefFrames : 11 frames
Codec ID : V_MPEG4/ISO/AVC
Duration : 1 h 52 min
Bit rate : 3 000 kb/s
Width : 880 pixels
Height : 496 pixels
Display aspect ratio : 16:9
Frame rate mode : Constant
Frame rate : 23.976 (24000/1001) FPS
Color space : YUV
Chroma subsampling : 4:2:0
Bit depth : 8 bits
Scan type : Progressive
Bits/(Pixel*Frame) : 0.287
Stream size : 2.35 GiB (80%)
Title : Shaolin Soccer.Siu lam juk kau.Chinese version
Writing library : x264 core 78 r1318 fe83a90
Encoding settings : cabac=1 / ref=11 / deblock=1:-2:-1 / analyse=0x3:0x133 / me=umh / subme=10 / psy=1 / psy_rd=1.1:0.2 / mixed_ref=1 / me_range=32 / chroma_me=1 / trellis=2 / 8x8dct=1 / cqm=0 / deadzone=21,11 / chroma_qp_offset=-3 / threads=3 / nr=0 / decimate=1 / mbaff=0 / constrained_intra=0 / bframes=7 / b_pyramid=2 / b_adapt=2 / b_bias=0 / direct=3 / wpredb=1 / keyint=250 / keyint_min=25 / scenecut=40 / rc=2pass / mbtree=0 / bitrate=3000 / ratetol=1.0 / qcomp=0.60 / qpmin=10 / qpmax=51 / qpstep=4 / cplxblur=20.0 / qblur=0.5 / ip_ratio=1.30 / pb_ratio=1.30 / aq=1:0.90
Language : Chinese
Default : Yes
Forced : No
Color range : Full

Audio #1
ID : 2
Format : AC-3
Format/Info : Audio Coding 3
Format settings, Endianness : Big
Codec ID : A_AC3
Duration : 1 h 52 min
Bit rate mode : Constant
Bit rate : 448 kb/s
Channel(s) : 6 channels
Channel positions : Front: L C R, Side: L R, LFE
Sampling rate : 48.0 kHz
Frame rate : 31.250 FPS (1536 SPF)
Bit depth : 16 bits
Compression mode : Lossy
Stream size : 360 MiB (12%)
Title : VO (allecs2010)
Language : Russian
Service kind : Complete Main
Default : Yes
Forced : No

Audio #2
ID : 3
Format : AAC
Format/Info : Advanced Audio Codec
Format profile : LC
Codec ID : A_AAC-2
Duration : 1 h 52 min
Bit rate : 282 kb/s
Channel(s) : 6 channels
Channel positions : Front: L C R, Side: L R, LFE
Sampling rate : 48.0 kHz
Frame rate : 46.875 FPS (1024 SPF)
Compression mode : Lossy
Stream size : 226 MiB (8%)
Title : Original
Language : Chinese
Default : No
Forced : No

Text
ID : 4
Format : UTF-8
Codec ID : S_TEXT/UTF8
Codec ID/Info : UTF-8 Plain Text
Duration : 1 h 49 min
Bit rate : 72 b/s
Count of elements : 964
Stream size : 57.6 KiB (0%)
Title : Full
Language : Russian
Default : No
Forced : No



Скачать Убойный.футбол.Шаолиньский.футбол.Shaolin.Soccer.Siu.lam.juk.kau.(Стивен.Чоу).[2001.боевик.комедия.спорт.BDRip-AVC].[Китайская.версия].[VO].(allecs2010).+.[Sub].Rus.+.[Original].Chi.torrent без регистрации
Золото ЗОЛОТАЯ РАЗДАЧА! СКАЧАННОЕ НЕ ЗАСЧИТЫВАЕТСЯ! Золото
Дата: Зарегистрирован   [ Тип: внутренний ] Как тут cкачать?
MAGNET ссылка
MAGNET ссылка


Скачать .torrent

15 KB

Статус: проверено DHT
Скачан: торрент - 16 раз, раздача полностью - 3 раз
Размер: 2,93 GB
Оценка:  - (Голосов: 0)
Поблагодарили: 0
Поделиться ссылкой на эту раздачу с друзьями:
В контактеFacebookОдноклассникиTwitterLivejournalМой МирLiveinternet
 

 
Показать сообщения:    


Вы не можете начинать темы
Вы не можете отвечать на сообщения
Вы не можете редактировать свои сообщения
Вы не можете удалять свои сообщения
Вы не можете голосовать в опросах
Вы не можете прикреплять файлы к сообщениям
Вы можете скачивать файлы