Loading...
Error

Скачать Плюшевый монстр / Lino: Uma Aventura de Sete Vidas (Рафаэль Рибас) [2017, мультфильм, семейный, WEB-DL] [720p] [DUB] [Лицензия / iTunes] торрент без регистрации

Статистика раздачи
Размер:  2,85 GB   |    Скачан:  43 раза
Сидов:  1  [  0 KB/s  ]  
 
 
 
Автор Сообщение

leon030982

[] 

Плюшевый монстр / Lino: Uma Aventura de Sete Vidas


Страна: Бразилия
Год выпуска: 2017
Жанр: мультфильм, семейный
Продолжительность: 01:32:25
Перевод: Дублированный [Лицензия / iTunes]
Субтитры: нет

Режиссер: Рафаэль Рибас

В ролях: Селтон Мелу, Фил, Паола Оливейра, Дира Паис, Луис Карлос Де Мораес, Гильерме Лопес, Хелио Рибейро, Лупа Мабузе, и др.

Описание: Жизнь Лино — молодого парня, работающего аниматором в детском саду, — кажется беспросветной: его дом того и гляди развалится, девушки его не любят, а на работе целый день терроризируют дети. Отчаявшись, он решается обратиться к одному незадачливому магу, который обещает найти выход из любой ситуации. И маг находит способ кардинально изменить жизнь Лино. Однако с колдовством что-то пошло не так, и Лино превратился в огромного кота-монстра. Как всё вернуть назад и стать счастливым?



Качество: WEB-DL 720p
Формат: MKV
Видео: MPEG-4 AVC, 4021 Кбит/с, 1280x720
Аудио: 48 kHz, AC3, 6 ch, ~384 kbps
General
Unique ID : 41242996735897981594367708519262983124 (0x1F071CBBD3629D061A6798EFF1B613D4)
Complete name : E:\Plushevy.monster.2017.Web-DL.720p.BC.mkv
Format : Matroska
Format version : Version 4 / Version 2
File size : 2.85 GiB
Duration : 1 h 32 min
Overall bit rate : 4 407 kb/s
Movie name : Плюшевый монстр / Lino: Uma Aventura de Sete Vidas (2017) Web-DL 720p [BC]
Encoded date : UTC 2018-02-28 20:01:26
Writing application : mkvmerge v20.0.0 ('I Am The Sun') 64-bit
Writing library : libebml v1.3.5 + libmatroska v1.4.8
Attachments : 1033911.jpg

Video
ID : 1
Format : AVC
Format/Info : Advanced Video Codec
Format profile : High@L3.1
Format settings : 2 Ref Frames
Format settings, CABAC : No
Format settings, RefFrames : 2 frames
Codec ID : V_MPEG4/ISO/AVC
Duration : 1 h 32 min
Bit rate : 3 936 kb/s
Width : 1 280 pixels
Height : 720 pixels
Display aspect ratio : 16:9
Frame rate mode : Constant
Frame rate : 24.000 FPS
Color space : YUV
Chroma subsampling : 4:2:0
Bit depth : 8 bits
Scan type : Progressive
Bits/(Pixel*Frame) : 0.178
Stream size : 2.54 GiB (89%)
Title : Plushevy.monster.2017.Web-DL.720p.BC [iTunes]
Language : English
Default : Yes
Forced : No
Color range : Limited
Color primaries : BT.709
Transfer characteristics : BT.709
Matrix coefficients : BT.709

Audio
ID : 2
Format : AC-3
Format/Info : Audio Coding 3
Format settings, Endianness : Big
Codec ID : A_AC3
Duration : 1 h 32 min
Bit rate mode : Constant
Bit rate : 384 kb/s
Channel(s) : 6 channels
Channel positions : Front: L C R, Side: L R, LFE
Sampling rate : 48.0 kHz
Frame rate : 31.250 FPS (1536 SPF)
Bit depth : 16 bits
Compression mode : Lossy
Delay relative to video : -42 ms
Stream size : 254 MiB (9%)
Title : iTunes
Language : Russian
Service kind : Complete Main
Default : Yes
Forced : No

Menu
00:00:00.000 : en:_01
00:06:52.583 : en:_02
00:13:23.291 : en:_03
00:21:18.999 : en:_04
00:27:58.624 : en:_05
00:32:29.124 : en:_06
00:37:39.540 : en:_07
00:42:07.915 : en:_08
00:48:17.748 : en:_09
00:53:18.206 : en:_10
00:58:31.497 : en:_11
01:03:52.538 : en:_12
01:10:49.413 : en:_13
01:17:48.913 : en:_14
01:22:02.871 : en:_15



Скачать Плюшевый.монстр.Lino.Uma.Aventura.de.Sete.Vidas.(Рафаэль.Рибас).[2017.мультфильм.семейный.WEB-DL].[720p].[DUB].[Лицензия.iTunes].torrent без регистрации
Золото ЗОЛОТАЯ РАЗДАЧА! СКАЧАННОЕ НЕ ЗАСЧИТЫВАЕТСЯ! Золото
Дата: Зарегистрирован   [ Тип: внутренний ] Как тут cкачать?
MAGNET ссылка
MAGNET ссылка


Скачать .torrent

15 KB

Статус: проверено DHT
Скачан: торрент - 43 раз, раздача полностью - 67 раз
Размер: 2,85 GB
Оценка:  - (Голосов: 0)
Поблагодарили: 4
Поделиться ссылкой на эту раздачу с друзьями:
В контактеFacebookОдноклассникиTwitterLivejournalМой МирLiveinternet
 

 
Показать сообщения:    


Вы не можете начинать темы
Вы не можете отвечать на сообщения
Вы не можете редактировать свои сообщения
Вы не можете удалять свои сообщения
Вы не можете голосовать в опросах
Вы не можете прикреплять файлы к сообщениям
Вы можете скачивать файлы