Loading...
Error

Скачать Евгения Гранде (Сергей Алексеев) [1960, драма, мелодрама, DVDRip-AVC] торрент без регистрации

Статистика раздачи
Размер:  1,19 GB   |    Скачан:  15 раз
Сидов:  2  [  0 KB/s  ]  
 
 
 
Автор Сообщение

Marsianka

[] 

Страна: СССР
Производство: Мосфильм

Жанр: драма, мелодрама
Год выпуска: 1960
Продолжительность: 01:35:25

Перевод: Не требуется
Cубтитры: нет
Оригинальная аудиодорожка: русский

Режиссер: Сергей Алексеев

В ролях:
Семен Межинский, Евдокия Турчанинова, Ариадна Шенгелая, Михаил Козаков, Александр Грузинский, Евгений Велихов, Владимир Владиславский, Виктор Хохряков, Ирина Ликсо, Никита Подгорный, Татьяна Панкова, Владимир Вилль, Пётр Старковский...
Об актёрах подробней

Описание:
Телевизионный фильм по одноимённому роману Оноре де Бальзака.
Отец Евгении Гранде (Семён Межинский) до французской революции 1789 года был простым бочаром. Революция позволила ему вылезти "из грязи в князи", он разбогател и даже стал мэром родного городка. Но родная дочь мысленно осуждает его - за скупость, за бездушие. Евгения (Ариадна Шенгелая) влюблена в собственного кузена Шарля (Михаил Козаков), который однажды уехал на заработки в Ост-Индию, и с тех пор не объявлялся. После смерти отца Евгения становится наследницей огромного состояния, от женихов нет отбоя, но ни один их них не способен сделать героиню счастливой...

Источник: DVD5 R5
Качество видео: DVDRip-AVC
Формат видео: MKV

Видео: 684->761x572 (4:3), 25,000 кадров/сек, H264 ~ 1591 kbps avg, 0.163 bit/pixel
Аудио: 48 kHz, Dolby Digital AC3 2.0, 192 kbps

Раздача от:

Общее
Полное имя : Evgeniya.Grande.1960.DVDRip-AVC_[New-team]_by_AVP_Studio.mkv
Формат : Matroska
Версия формата : Version 2
Размер файла : 1,19 Гбайт
Продолжительность : 1 ч. 35 м.
Общий поток : 1785 Кбит/сек
Дата кодирования : UTC 2018-02-26 15:03:21
Программа кодирования : mkvmerge v6.1.0 ('Old Devil') built on Mar 4 2013 09:10:42
Библиотека кодирования : libebml v1.3.0 + libmatroska v1.4.0

Видео
Идентификатор : 1
Формат : AVC
Формат/Информация : Advanced Video Codec
Профиль формата : High@L4.1
Настройки формата : CABAC / 10 Ref Frames
Параметр CABAC формата : Да
Параметр RefFrames формата : 10 кадров
Идентификатор кодека : V_MPEG4/ISO/AVC
Продолжительность : 1 ч. 35 м.
Битрейт : 1591 Кбит/сек
Ширина : 684 пикселя
Высота : 572 пикселя
Соотношение сторон : 4:3
Режим частоты кадров : Постоянный
Частота кадров : 25,000 кадров/сек
Цветовое пространство : YUV
Субдискретизация насыщенности : 4:2:0
Битовая глубина : 8 бит
Тип развёртки : Прогрессивная
Бит/(Пиксели*Кадры) : 0.163
Размер потока : 1,04 Гбайт (87%)
Библиотека кодирования : x264 core 130 r2273 b3065e6
Настройки программы : cabac=1 / ref=10 / deblock=1:-2:-1 / analyse=0x3:0x113 / me=umh / subme=10 / psy=1 / psy_rd=1.00:0.00 / mixed_ref=1 / me_range=32 / chroma_me=1 / trellis=2 / 8x8dct=1 / cqm=0 / deadzone=21,11 / fast_pskip=1 / chroma_qp_offset=-2 / threads=6 / lookahead_threads=1 / sliced_threads=0 / nr=0 / decimate=0 / interlaced=0 / bluray_compat=0 / constrained_intra=0 / bframes=8 / b_pyramid=2 / b_adapt=2 / b_bias=0 / direct=3 / weightb=1 / open_gop=0 / weightp=2 / keyint=250 / keyint_min=25 / scenecut=40 / intra_refresh=0 / rc=2pass / mbtree=0 / bitrate=1591 / ratetol=1.0 / qcomp=0.60 / qpmin=0 / qpmax=69 / qpstep=4 / cplxblur=20.0 / qblur=0.5 / ip_ratio=1.40 / pb_ratio=1.30 / aq=1:1.00
Default : Да
Forced : Нет

Аудио
Идентификатор : 2
Формат : AC-3
Формат/Информация : Audio Coding 3
Идентификатор кодека : A_AC3
Продолжительность : 1 ч. 35 м.
Вид битрейта : Постоянный
Битрейт : 192 Кбит/сек
Каналы : 2 канала
Расположение каналов : Front: L R
Частота : 48,0 КГц
Частота кадров : 31,250 кадров/сек (1536 SPF)
Битовая глубина : 16 бит
Метод сжатия : С потерями
Размер потока : 131 Мбайт (11%)
Default : Да
Forced : Нет



Скачать Евгения.Гранде.(Сергей.Алексеев).[1960.драма.мелодрама.DVDRip-AVC].torrent без регистрации
Золото ЗОЛОТАЯ РАЗДАЧА! СКАЧАННОЕ НЕ ЗАСЧИТЫВАЕТСЯ! Золото
Дата: Зарегистрирован   [ Тип: внешний ] Как тут cкачать?
MAGNET ссылка
MAGNET ссылка


Скачать .torrent

13 KB

Статус: проверено DHT
Скачан: торрент - 15 раз, раздача полностью - 2 раз
Размер: 1,19 GB
Оценка:  - (Голосов: 0)
Поблагодарили: 0
Поделиться ссылкой на эту раздачу с друзьями:
В контактеFacebookОдноклассникиTwitterLivejournalМой МирLiveinternet
 

 
Показать сообщения:    


Вы не можете начинать темы
Вы не можете отвечать на сообщения
Вы не можете редактировать свои сообщения
Вы не можете удалять свои сообщения
Вы не можете голосовать в опросах
Вы не можете прикреплять файлы к сообщениям
Вы можете скачивать файлы