Loading...
Error

Скачать Дом большой мамочки / Big Momma's House (Раджа Госнелл) [2000, комедия, криминал, HDRip-AVC] [Dub]+[Sub Rus, Eng]x2 торрент без регистрации

Статистика раздачи
Размер:  746 MB   |    Скачан:  15 раз
Сидов:  1  [  0 KB/s  ]  
 
 
 
Автор Сообщение

Marsianka

[] 

Информация о фильме
Название: Дом большой мамочки
Оригинальное название: Big Momma's House
Год выхода: 2000
Жанр: комедия, криминал
Режиссер: Раджа Госнелл
В ролях: Мартин Лоуренс, Ниа Лонг, Пол Джаматти, Яша Вашингтон, Терренс Ховард, Энтони Андерсон, Элла Митчел, Карл Райт, Филлис Эпплгейт, Старлетта Дюпуа

О фильме :
Агент ФБР Малкольм Тернер, мастер перевоплощений. Он умен, обаятелен и не существует такого задания, с которым он бы не справился. Остановить череду жестоких преступлений? Нет проблем. Малкольм входит в роль пожилого азиата для расследования преступлений. Последнее назначение Малкольма приводит его в маленький южный городок, где он должен поймать матерого грабителя банков, недавно сбежавшего из тюрьмы. Малкольм устанавливает слежку за домом южной, властной женщины, известной как "Большая мамочка". По оперативным данным ее должна навестить бывшая подружка преступника Шерри со своим сыном. Очень простой план, но есть одна Большая проблема: Большая мамочка неожиданно покидает город...



Страна: США, Германия
Продолжительность: 01:38:58
Перевод: Профессиональный (полное дублирование)

Файл
Формат: MKV
Качество: HDRip-AVC
Видео: MPEG-4 AVC, 752x408, ~ 977 Кбит/с
Аудио: AAC-HE, 2 ch, ~ 76 Кбит/с
Субтитры: Русские, английские
Общее
Уникальный идентификатор : 203621773567851267267522985996338247582 (0x99302089E93D1C5B9A4B6DD6376AB79E)
Полное имя : D:MOVIESDom.bolshoj.mamochki.2000.ExKinoRay.mkv
Формат : Matroska
Версия формата : Version 4 / Version 2
Размер файла : 746 Мбайт
Продолжительность : 1 ч. 38 м.
Общий поток : 1054 Кбит/сек
Дата кодирования : UTC 2018-03-02 18:30:50
Программа кодирования : mkvmerge v15.0.0 ('Duel with the Devil') 64-bit
Библиотека кодирования : libebml v1.3.5 + libmatroska v1.4.5

Видео
Идентификатор : 1
Формат : AVC
Формат/Информация : Advanced Video Codec
Профиль формата : High@L4.1
Параметр CABAC формата : Да
Параметр RefFrames формата : 10 кадров
Идентификатор кодека : V_MPEG4/ISO/AVC
Продолжительность : 1 ч. 38 м.
Битрейт : 977 Кбит/сек
Ширина : 752 пикселя
Высота : 408 пикселей
Соотношение сторон : 1,85:1
Режим частоты кадров : Постоянный
Частота кадров : 23,976 (24000/1001) кадра/сек
Цветовое пространство : YUV
Субдискретизация насыщенности : 4:2:0
Битовая глубина : 8 бит
Тип развёртки : Прогрессивная
Бит/(Пиксели*Кадры) : 0.133
Размер потока : 691 Мбайт (93%)
Библиотека кодирования : x264 core 155 r2901 7d0ff22
Настройки программы : cabac=1 / ref=10 / deblock=1:-3:-3 / analyse=0x3:0x133 / me=umh / subme=11 / psy=1 / psy_rd=1.00:0.10 / mixed_ref=1 / me_range=32 / chroma_me=1 / trellis=2 / 8x8dct=1 / cqm=0 / deadzone=21,11 / fast_pskip=0 / chroma_qp_offset=-3 / threads=6 / lookahead_threads=1 / sliced_threads=0 / nr=0 / decimate=0 / interlaced=0 / bluray_compat=0 / constrained_intra=0 / bframes=10 / b_pyramid=2 / b_adapt=2 / b_bias=0 / direct=3 / weightb=1 / open_gop=0 / weightp=2 / keyint=240 / keyint_min=23 / scenecut=40 / intra_refresh=0 / rc_lookahead=40 / rc=2pass / mbtree=1 / bitrate=977 / ratetol=1.0 / qcomp=0.60 / qpmin=0 / qpmax=69 / qpstep=4 / cplxblur=20.0 / qblur=0.5 / vbv_maxrate=50000 / vbv_bufsize=62500 / nal_hrd=none / filler=0 / ip_ratio=1.40 / aq=3:1.00
Default : Да
Forced : Нет

Аудио
Идентификатор : 2
Формат : AAC
Формат/Информация : Advanced Audio Codec
Профиль формата : HE-AAC / LC
Идентификатор кодека : A_AAC
Продолжительность : 1 ч. 38 м.
Битрейт : 76,0 Кбит/сек
Каналы : 2 канала
Расположение каналов : Front: L R
Частота : 48,0 КГц / 24,0 КГц
Частота кадров : 23,438 кадра/сек (1024 SPF)
Метод сжатия : С потерями
Задержка видео : 31 мс.
Размер потока : 53,8 Мбайт (7%)
Default : Да
Forced : Нет

Текст #1
Идентификатор : 3
Формат : UTF-8
Идентификатор кодека : S_TEXT/UTF8
Идентификатор кодека/Информация : UTF-8 Plain Text
Продолжительность : 1 ч. 32 м.
Битрейт : 101 бит/сек
ElementCount : 1129
Размер потока : 68,9 Кбайт (0%)
Язык : Russian
Default : Нет
Forced : Нет

Текст #2
Идентификатор : 4
Формат : UTF-8
Идентификатор кодека : S_TEXT/UTF8
Идентификатор кодека/Информация : UTF-8 Plain Text
Продолжительность : 1 ч. 36 м.
Битрейт : 68 бит/сек
ElementCount : 1312
Размер потока : 48,8 Кбайт (0%)
Язык : English
Default : Нет
Forced : Нет

Меню
00:00:00.000 : en:00:00:00.000
00:03:29.751 : en:00:03:29.751
00:06:14.165 : en:00:06:14.165
00:13:37.025 : en:00:13:37.025
00:16:53.262 : en:00:16:53.262
00:21:12.354 : en:00:21:12.354
00:25:07.423 : en:00:25:07.423
00:30:32.873 : en:00:30:32.873
00:36:53.002 : en:00:36:53.002
00:43:07.835 : en:00:43:07.835
00:49:11.740 : en:00:49:11.740
00:53:55.899 : en:00:53:55.899
00:59:36.156 : en:00:59:36.156
01:02:23.531 : en:01:02:23.531
01:07:49.732 : en:01:07:49.732
01:13:52.595 : en:01:13:52.595
01:20:47.885 : en:01:20:47.885
01:25:20.991 : en:01:25:20.991
01:29:55.181 : en:01:29:55.181
01:33:17.300 : en:01:33:17.300
Релиз от:



Скачать Дом.большой.мамочки.Big.Momma's.House.(Раджа.Госнелл).[2000.комедия.криминал.HDRip-AVC].[Dub]+[Sub.Rus.Eng]x2.torrent без регистрации
Золото ЗОЛОТАЯ РАЗДАЧА! СКАЧАННОЕ НЕ ЗАСЧИТЫВАЕТСЯ! Золото
Дата: Зарегистрирован   [ Тип: внутренний ] Как тут cкачать?
MAGNET ссылка
MAGNET ссылка


Скачать .torrent

16 KB

Статус: проверено DHT
Скачан: торрент - 15 раз, раздача полностью - 2 раз
Размер: 746 MB
Оценка:  - (Голосов: 0)
Поблагодарили: 0
Поделиться ссылкой на эту раздачу с друзьями:
В контактеFacebookОдноклассникиTwitterLivejournalМой МирLiveinternet
 

 
Показать сообщения:    


Вы не можете начинать темы
Вы не можете отвечать на сообщения
Вы не можете редактировать свои сообщения
Вы не можете удалять свои сообщения
Вы не можете голосовать в опросах
Вы не можете прикреплять файлы к сообщениям
Вы можете скачивать файлы