Loading...
Error

Скачать Западня / Caught (Сезон 01) (Т.Дж. Скотт, Джон Ватчер) [2018, Канада, драма, WEB-DLRip] [MVO] (AlexFilm) + [Orig] торрент без регистрации

Статистика раздачи
Размер:  2,53 GB   |    Скачан:  75 раз
Сидов:  1  [  0 KB/s  ]  
 
 
 
Автор Сообщение

leon030982

[] 

Западня / Caught

Год выпуска: 2018
Страна: Канада
Жанр: драма
Продолжительность: ~00:45:00
Озвучание: Профессиональное (многоголосое закадровое) (AlexFilm)

Режиссеры: Т.Дж. Скотт, Джон Ватчер

В ролях: Аллан Хоуко, Пол Гросс, Эрик Джонсон, Виктория Андерсон, Энука Окума, Грег Брайк, Шарлотта Салливан, Билли Маклеллан, Майк Допуд, Джулиан Шэмп и др.

Описание: Действие сериала происходит в 1978 году, а сюжет разворачивается вокруг Дэвида Слэйни (Аллан Хоко) - заключенного, отбывающего срок за хранение марихуаны. Дэвид совершает дерзкий побег из тюрьмы, в котором ему помогает друг сестры (и, возможно, еще кое-какие обстоятельства). Главная цель Дэвида - найти своего бывшего делового партнера (Эрик Джонсон) и вернуться в наркобизнесс. Сделать это будет не так-то просто, поскольку по пятам за Дэвидом идет детектив Паттерсон (Пол Гросс), которому позарез нужен громкий арест.

Релиз:

Перевод: Мисс Джексон, Алиса Галланова
Монтаж и сведение звука: Алексей Фокин
Роли озвучивали:
Евгения Тихонова
Маргарита Корш
Кирилл Патрино
Константин Федосеев
Константин Погодаев
Михаил Суслов



Качество: WEB-DLRip
Формат: AVI
Видео: 720x384 (1,85:1), 23,976 fps, XviD ~1400 kbps avg, 0.198 bit/pixel
Аудио Rus: 48 kHz, MPEG Layer 3, 2 ch, ~128.00 kbps avg
Аудио Eng: 48 kHz, MPEG Layer 3, 2 ch, ~128.00 kbps avg
Субтитры: нет
Формат : AVI
Формат/Информация : Audio Video Interleave
Размер файла : 514 Мбайт
Продолжительность : 43 м. 51 с.
Общий поток : 1640 Кбит/сек
Название фильма : Caught 1x01 @ AlexFilm
Программа кодирования : VirtualDubMod 1.5.10.2 (build 2540/release)
Библиотека кодирования : VirtualDubMod build 2540/release

Видео
Идентификатор : 0
Формат : MPEG-4 Visual
Профиль формата : Advanced Simple@L5
Параметр BVOP формата : Нет
Параметр QPel формата : Нет
Параметр GMC формата : Без точки перехода
Параметр матрицы формата : Default (MPEG)
Идентификатор кодека : XVID
Идентификатор кодека/Подсказка : XviD
Продолжительность : 43 м. 51 с.
Битрейт : 1370 Кбит/сек
Ширина : 720 пикселей
Высота : 384 пикселя
Соотношение сторон : 1,85:1
Частота кадров : 23,976 (23976/1000) кадра/сек
Цветовое пространство : YUV
Субдискретизация насыщенности : 4:2:0
Битовая глубина : 8 бит
Тип развёртки : Прогрессивная
Метод сжатия : С потерями
Бит/(Пиксели*Кадры) : 0.207
Размер потока : 430 Мбайт (84%)
Библиотека кодирования : XviD 73

Аудио #1
Идентификатор : 1
Формат : MPEG Audio
Версия формата : Version 1
Профиль формата : Layer 3
Идентификатор кодека : 55
Идентификатор кодека/Подсказка : MP3
Продолжительность : 43 м. 51 с.
Вид битрейта : Постоянный
Битрейт : 128 Кбит/сек
Каналы : 2 канала
Частота : 48,0 КГц
Метод сжатия : С потерями
Размер потока : 40,2 Мбайт (8%)
Выравнивание : Соединение по промежуткам
Продолжительность промежутка : 42 мс. (1,00 видеокадр)
Время предзагрузки промежутка : 504 мс.
Заголовок : Russian (AlexFilm)

Аудио #2
Идентификатор : 2
Формат : MPEG Audio
Версия формата : Version 1
Профиль формата : Layer 3
Режим : Joint stereo
Расширение режима : MS Stereo
Идентификатор кодека : 55
Идентификатор кодека/Подсказка : MP3
Продолжительность : 43 м. 51 с.
Вид битрейта : Постоянный
Битрейт : 128 Кбит/сек
Каналы : 2 канала
Частота : 48,0 КГц
Метод сжатия : С потерями
Размер потока : 40,2 Мбайт (8%)
Выравнивание : Соединение по промежуткам
Продолжительность промежутка : 42 мс. (1,00 видеокадр)
Время предзагрузки промежутка : 504 мс.
Заголовок : English
Библиотека кодирования : LAME3.90.3ЄЄЄЄЄЄЄЄЄЄ
Внимание! Раздача ведётся путём добавления новых серий; при каждом добавлении создаётся новый торрент. Чтобы начать докачку новой серии, пользователям необходимо сделать следующее:
(1) остановить скачивание,
(2) удалить старый торрент у себя из клиента (старые серии удалять не надо),
(3) скачать новый торрент и запустить его у себя в клиенте вместо старого, при этом указать клиенту путь в старую папку куда и должно происходить скачивание новых серий.
Ваш клиент при этом должен произвести хеширование (проверку) старой папки (если не производит сам - помогите ему сделать это), и будет докачивать только те серии которых у вас ещё нет. Старые серии при этом не удаляются, а продолжают раздаваться!
Eсли вы уже удалили старые серии, то предотвратить повторную закачку старых серий можно, отжав галочку в соответствующих местах при запуске нового торрента. По возможности, желательно не удалять старые серии как можно дольше чтобы релизёр не столько продолжал раздавать старые серии, а смог сконцентрироваться на новых.



Скачать Западня.Caught.(Сезон.01).(Т.Дж.Скотт.Джон.Ватчер).[2018.Канада.драма.WEB-DLRip].[MVO].(AlexFilm).+.[Orig].torrent без регистрации
Золото ЗОЛОТАЯ РАЗДАЧА! СКАЧАННОЕ НЕ ЗАСЧИТЫВАЕТСЯ! Золото
Дата: Зарегистрирован   [ Тип: внутренний ] Как тут cкачать?
MAGNET ссылка
MAGNET ссылка


Скачать .torrent

14 KB

Статус: проверено DHT
Скачан: торрент - 75 раз, раздача полностью - 2 раз
Размер: 2,53 GB
Оценка:  - (Голосов: 0)
Поблагодарили: 1
Поделиться ссылкой на эту раздачу с друзьями:
В контактеFacebookОдноклассникиTwitterLivejournalМой МирLiveinternet
 

 
Показать сообщения:    


Вы не можете начинать темы
Вы не можете отвечать на сообщения
Вы не можете редактировать свои сообщения
Вы не можете удалять свои сообщения
Вы не можете голосовать в опросах
Вы не можете прикреплять файлы к сообщениям
Вы можете скачивать файлы