Loading...
Error

Скачать Никто не хотел умирать (Витаутас Жалакявичюс) [1965, боевик, драма, вестерн, история, DVDRip] [Оригинал Rus] торрент без регистрации

Статистика раздачи
Размер:  1,09 GB   |    Скачан:  14 раз
Сидов:  7  [  0 KB/s  ]   Личеров:  2  [  0 KB/s  ]  
 
 
 
Автор Сообщение

Marsianka

[] 

Страна: СССР
Производство: Литовская киностудия

Жанр: боевик, драма, вестерн, история
Год выпуска: 1965
Продолжительность: 01:40:26

Перевод: Не требуется
Cубтитры: нет
Оригинальная аудиодорожка: русский

Режиссер: Витаутас Жалакявичюс

В ролях:
Казимирас Виткус, Донатас Банионис, Регимантас Адомайтис, Юозас Будрайтис, Альгимантас Масюлис, Бруно Оя, Вия Артмане, Дангуоле Баукайте, Эугения Шулгайте, Антанас Шурна, Бронюс Бабкаускас, Лаймонас Норейка, Витаутас Томкус...
Полный список актёров

Описание:
1947 год. В литовских лесах еще прячутся вооруженные банды из бывших полицейских, офицеров, кулацких сынков. Один за другим убиты четыре председателя сельсовета. Теперь погиб старый Локис. На похоронах четверо его сыновей клянутся не покидать деревню до тех пор, пока не уничтожат банду Домового...
Выпуск фильма - 5 сентября 1966 г.


Источник: DVD5 R5
Качество видео: DVDRip
Формат видео: AVI

Видео: 688x368 (1,85:1), 25 fps, XviD ~ 1350 kbps avg, 0.213 bit/pixel
Аудио: 48 kHz, Dolby Digital AC3 2.0, 192 kbps

Раздача от:

Общее
Полное имя : Nikto.ne.hotel.umirat.1965.DVDRip_[New-team]_by_AVP_Studio.avi
Формат : AVI
Формат/Информация : Audio Video Interleave
Размер файла : 1,09 Гбайт
Продолжительность : 1 ч. 40 м.
Общий поток : 1551 Кбит/сек
Программа кодирования : VirtualDubMod 1.5.10.3 | www.virtualdub-fr.org || (build 2550/release)
Библиотека кодирования : VirtualDubMod build 2550/release

Видео
Идентификатор : 0
Формат : MPEG-4 Visual
Профиль формата : Advanced Simple@L5
Параметр BVOP формата : 1
Параметр QPel формата : Нет
Параметр GMC формата : Без точки перехода
Параметр матрицы формата : Выборочная
Идентификатор кодека : XVID
Идентификатор кодека/Подсказка : XviD
Продолжительность : 1 ч. 40 м.
Битрейт : 1350 Кбит/сек
Ширина : 688 пикселей
Высота : 368 пикселей
Соотношение сторон : 1,85:1
Частота кадров : 25,000 кадров/сек
Цветовое пространство : YUV
Субдискретизация насыщенности : 4:2:0
Битовая глубина : 8 бит
Тип развёртки : Прогрессивная
Метод сжатия : С потерями
Бит/(Пиксели*Кадры) : 0.213
Размер потока : 970 Мбайт (87%)
Библиотека кодирования : XviD 73

Аудио
Идентификатор : 1
Формат : AC-3
Формат/Информация : Audio Coding 3
Расширение режима : CM (complete main)
Параметр Endianness формата : Big
Идентификатор кодека : 2000
Продолжительность : 1 ч. 40 м.
Вид битрейта : Постоянный
Битрейт : 192 Кбит/сек
Каналы : 2 канала
Расположение каналов : Front: L R
Частота : 48,0 КГц
Метод сжатия : С потерями
Размер потока : 138 Мбайт (12%)
Выравнивание : Разделение по промежуткам
Продолжительность промежутка : 40 мс. (1,00 видеокадр)
Время предзагрузки промежутка : 500 мс



Скачать Никто.не.хотел.умирать.(Витаутас.Жалакявичюс).[1965.боевик.драма.вестерн.история.DVDRip].[Оригинал.Rus].torrent без регистрации
Золото ЗОЛОТАЯ РАЗДАЧА! СКАЧАННОЕ НЕ ЗАСЧИТЫВАЕТСЯ! Золото
Дата: Зарегистрирован   [ Тип: внешний ] Как тут cкачать?
MAGNET ссылка
MAGNET ссылка


Скачать .torrent

12 KB

Статус: проверено DHT
Скачан: торрент - 14 раз, раздача полностью - 8 раз
Размер: 1,09 GB
Оценка:  - (Голосов: 0)
Поблагодарили: 1
Поделиться ссылкой на эту раздачу с друзьями:
В контактеFacebookОдноклассникиTwitterLivejournalМой МирLiveinternet
 

 
Показать сообщения:    


Вы не можете начинать темы
Вы не можете отвечать на сообщения
Вы не можете редактировать свои сообщения
Вы не можете удалять свои сообщения
Вы не можете голосовать в опросах
Вы не можете прикреплять файлы к сообщениям
Вы можете скачивать файлы