Loading...
Error

Скачать Пращи и стрелы / Slings and Arrows (Сезон 02, серии 01-02 из 06) (Питер Веллингтон) [2005, комедия, драма, HDRip] [MVO] (AlexFilm) + [Orig] торрент без регистрации

Статистика раздачи
Размер:  1,09 GB   |    Скачан:  7 раз
Сидов:  1  [  0 KB/s  ]  
 
 
 
Автор Сообщение

leon030982

[] 

Пращи и стрелы / Slings and Arrows

Год выпуска: 2005
Страна: Канада
Жанр: комедия, драма
Продолжительность: ~00:46:17
Озвучание: Профессиональное (многоголосое закадровое) (AlexFilm)

Режиссер: Питер Веллингтон

В ролях: Пол Гросс, Марта Бернс, Стефен Виметт, Марк Маккини, Дон Маккеллар, Рейчел Макаддамс, Дженнифер Ирвин, Люк Кирби, Сюзан Койн и т.д.

Описание: Городской театр ставит "Гамлета". Исполнитель главной роли - кинозвезда экшена, молодая актриса уверена, что Офелию легче всего играть под кайфом, главная прима больше занята молодыми любовниками, финансовый директор занимается интригами, а что касается режиссера, так его недавно выпустили из сумасшедшего дома и советы по постановке ему дает один надоедливый призрак, а это, согласитесь, раздражает. Так состоится ли премьера?

"Этому месту не помешает немного безумия"

Что такое театр? Закулисные дрязги - или высокое искусство? Драмы шекспировских героев и драмы в человеческой жизни - так ли они далеки друг от друга? Что побеждает - практический рассчет и смета бизнесмена или поэтическая вера?

Искрометный юмор, гениальная актерская игра, бесподобные диалоги, живые интриги - в сериале "Пращи и стрелы".

Сериал "Пращи и стрелы" удостоился рекордного количества самых престижных наград и номинаций и всеобщего признания критиков.Слоган: "Настоящее представление - за кулисами."

Релиз:

Перевод: Леонид Дмитриев
Монтаж и сведение звука: Михаил Суслов
Роли озвучивали:
Екатерина Муравицкая
Алёна Левичева
Кирилл Патрино
Константин Погодаев
Константин Федосеев
Леонид Дмитриев
Михаил Суслов



Качество: HDRip
Формат: AVI
Видео: 720x400 (16:9), 23.976 fps, XviD ~1400 kbps avg, 0.20 bit/pixel
Аудио Rus: 48 kHz, MPEG Layer 3, 2 ch, ~128.00 kbps avg
Аудио Eng: 48 kHz, MPEG Layer 3, 2 ch, ~128.00 kbps avg
Субтитры: нет
Реклама: отсутствует
Формат : AVI
Формат/Информация : Audio Video Interleave
Размер файла : 558 Мбайт
Продолжительность : 46 м. 36 с.
Общий поток : 1672 Кбит/сек
Название фильма : Slings and Arrows 2x01 @ AlexFilm
Программа кодирования : VirtualDubMod 1.5.10.2 (build 2540/release)
Библиотека кодирования : VirtualDubMod build 2540/release

Видео
Идентификатор : 0
Формат : MPEG-4 Visual
Профиль формата : Advanced Simple@L5
Параметр BVOP формата : Нет
Параметр QPel формата : Нет
Параметр GMC формата : Без точки перехода
Параметр матрицы формата : Default (MPEG)
Идентификатор кодека : XVID
Идентификатор кодека/Подсказка : XviD
Продолжительность : 46 м. 36 с.
Битрейт : 1402 Кбит/сек
Ширина : 720 пикселей
Высота : 400 пикселей
Соотношение сторон : 16:9
Частота кадров : 23,976 (23976/1000) кадра/сек
Цветовое пространство : YUV
Субдискретизация насыщенности : 4:2:0
Битовая глубина : 8 бит
Тип развёртки : Прогрессивная
Метод сжатия : С потерями
Бит/(Пиксели*Кадры) : 0.203
Размер потока : 468 Мбайт (84%)
Библиотека кодирования : XviD 73

Аудио #1
Идентификатор : 1
Формат : MPEG Audio
Версия формата : Version 1
Профиль формата : Layer 3
Режим : Joint stereo
Идентификатор кодека : 55
Идентификатор кодека/Подсказка : MP3
Продолжительность : 46 м. 36 с.
Вид битрейта : Постоянный
Битрейт : 128 Кбит/сек
Каналы : 2 канала
Частота : 48,0 КГц
Метод сжатия : С потерями
Размер потока : 42,7 Мбайт (8%)
Выравнивание : Соединение по промежуткам
Продолжительность промежутка : 42 мс. (1,00 видеокадр)
Время предзагрузки промежутка : 504 мс.
Заголовок : Russian (AlexFilm)
Библиотека кодирования : LAME3.99r
Настройки программы : -m j -V 4 -q 3 -lowpass 18 -b 128

Аудио #2
Идентификатор : 2
Формат : MPEG Audio
Версия формата : Version 1
Профиль формата : Layer 3
Режим : Joint stereo
Расширение режима : MS Stereo
Идентификатор кодека : 55
Идентификатор кодека/Подсказка : MP3
Продолжительность : 46 м. 36 с.
Вид битрейта : Постоянный
Битрейт : 128 Кбит/сек
Каналы : 2 канала
Частота : 48,0 КГц
Метод сжатия : С потерями
Размер потока : 42,7 Мбайт (8%)
Выравнивание : Соединение по промежуткам
Продолжительность промежутка : 42 мс. (1,00 видеокадр)
Время предзагрузки промежутка : 504 мс.
Заголовок : English
Внимание! Раздача ведётся путём добавления новых серий; при каждом добавлении создаётся новый торрент. Чтобы начать докачку новой серии, пользователям необходимо сделать следующее:
(1) остановить скачивание,
(2) удалить старый торрент у себя из клиента (старые серии удалять не надо),
(3) скачать новый торрент и запустить его у себя в клиенте вместо старого, при этом указать клиенту путь в старую папку куда и должно происходить скачивание новых серий.
Ваш клиент при этом должен произвести хеширование (проверку) старой папки (если не производит сам - помогите ему сделать это), и будет докачивать только те серии которых у вас ещё нет. Старые серии при этом не удаляются, а продолжают раздаваться!
Eсли вы уже удалили старые серии, то предотвратить повторную закачку старых серий можно, отжав галочку в соответствующих местах при запуске нового торрента. По возможности, желательно не удалять старые серии как можно дольше чтобы релизёр не столько продолжал раздавать старые серии, а смог сконцентрироваться на новых.



Скачать Пращи.и.стрелы.Slings.and.Arrows.(Сезон.02.серии.01-02.из.06).(Питер.Веллингтон).[2005.комедия.драма.HDRip].[MVO].(AlexFilm).+.[Orig].torrent без регистрации
Золото ЗОЛОТАЯ РАЗДАЧА! СКАЧАННОЕ НЕ ЗАСЧИТЫВАЕТСЯ! Золото
Дата: Зарегистрирован   [ Тип: внутренний ] Как тут cкачать?
MAGNET ссылка
MAGNET ссылка


Скачать .torrent

12 KB

Статус: проверено DHT
Скачан: торрент - 7 раз, раздача полностью - 0 раз
Размер: 1,09 GB
Оценка:  - (Голосов: 0)
Поблагодарили: 0
Поделиться ссылкой на эту раздачу с друзьями:
В контактеFacebookОдноклассникиTwitterLivejournalМой МирLiveinternet
 

 
Показать сообщения:    


Вы не можете начинать темы
Вы не можете отвечать на сообщения
Вы не можете редактировать свои сообщения
Вы не можете удалять свои сообщения
Вы не можете голосовать в опросах
Вы не можете прикреплять файлы к сообщениям
Вы можете скачивать файлы