Loading...
Error

Скачать Медичи: Правители Флоренции / Medici: Masters of Florence (Сезон 01) (Серджо Мимика-Геззан) [2016, исторический, драма, WEBRip] [1080p] [DUB] + [MVO] (Jaskier)+[Engl] торрент без регистрации

Статистика раздачи
Размер:  28,19 GB   |    Скачан:  20 раз
Сидов:  1  [  0 KB/s  ]  
 
 
 
Автор Сообщение

leon030982

[] 

Медичи: Правители Флоренции / Medici: Masters of Florence
Год выпуска: 2016
Страна: Великобритания, Италия
Жанр: Исторический, драма
Продолжительность: ~ 00:50:00
Перевод 1: Дублированный [TrueDubbing Studio]
Перевод 2: Профессиональный (многоголосый закадровый) Jaskier
Субтитры: Русские (форсированные), английские

Режиссёр: Серджо Мимика-Геззан

В ролях: Дастин Хоффман, Гвидо Каприно, Джорджо Капуто, Ричард Мэдден, Стюарт Мартин и другие

Описание: Окунемся в историю, чтобы вновь познакомиться с известными представителями семейства Медичи, которые стали известны своим огромным влиянием и кардинальными взглядами на управление государством и ведение торговли. Клан Медичи в Италии стал самым влиятельным в свое время. Кажется, что эти люди управляли каждым направление общественной и политической жизни страны. Несмотря на свою огромную власть, эти люди обладали стремлением к одухотворению народа и самих себя. Проведя культурную и экономическую революцию в стране, главные герои смогли укрепить позиции Италии на мировой арене и нажить себе море завистников и врагов!



Качество: WEBRip 1080p
Контейнер: MKV
Видео: MPEG-4 AVC, 1920x1038 (1.85:1), 25 fps, ~8400kbps
Аудио 1: AC3, 48 kHz, 2ch, 192 Kbps - DUB
Аудио 2: AC3, 48 kHz, 6ch, 384 Kbps - MVO
Аудио 3: AC3, 48 kHz, 6ch, 384 Kbps - ENG
General
Unique ID : 246226112320509739722714087371577565799 (0xB93D6C9DAAD5D74EBA2FEAD936612267)
Complete name : E:\Medici.Masters.of.Florence.S01.1080p.NF.WEBRip.x264-FILMS.CLUB\Medici.Masters.of.Florence.S01E01.Original.Sin.1080p.NF.WEBRip.x264-FILMS.CLUB.mkv
Format : Matroska
Format version : Version 4 / Version 2
File size : 3.63 GiB
Duration : 55 min 21 s
Overall bit rate : 9 397 kb/s
Encoded date : UTC 2017-12-10 03:18:00
Writing application : mkvmerge v8.2.0 ('World of Adventure') 64bit
Writing library : libebml v1.3.1 + libmatroska v1.4.2
Cover : Yes
Attachments : cover.medici.jpg

Video
ID : 1
Format : AVC
Format/Info : Advanced Video Codec
Format profile : High@L4.1
Format settings : CABAC / 4 Ref Frames
Format settings, CABAC : Yes
Format settings, RefFrames : 4 frames
Codec ID : V_MPEG4/ISO/AVC
Duration : 55 min 21 s
Bit rate : 8 250 kb/s
Width : 1 920 pixels
Height : 1 038 pixels
Display aspect ratio : 1.85:1
Frame rate mode : Constant
Frame rate : 25.000 FPS
Color space : YUV
Chroma subsampling : 4:2:0
Bit depth : 8 bits
Scan type : Progressive
Bits/(Pixel*Frame) : 0.166
Stream size : 3.19 GiB (88%)
Writing library : x264 core 144 r2525 40bb568
Encoding settings : cabac=1 / ref=4 / deblock=1:-3:-3 / analyse=0x3:0x133 / me=umh / subme=10 / psy=1 / psy_rd=1.00:0.00 / mixed_ref=1 / me_range=48 / chroma_me=1 / trellis=2 / 8x8dct=1 / cqm=0 / deadzone=21,11 / fast_pskip=1 / chroma_qp_offset=-2 / threads=12 / lookahead_threads=2 / sliced_threads=0 / nr=0 / decimate=1 / interlaced=0 / bluray_compat=0 / constrained_intra=0 / bframes=8 / b_pyramid=2 / b_adapt=2 / b_bias=0 / direct=3 / weightb=1 / open_gop=0 / weightp=2 / keyint=250 / keyint_min=25 / scenecut=40 / intra_refresh=0 / rc=crf / mbtree=0 / crf=17.0 / qcomp=0.60 / qpmin=0 / qpmax=69 / qpstep=4 / ip_ratio=1.30 / pb_ratio=1.20 / aq=3:0.70
Language : English
Default : Yes
Forced : No

Audio #1
ID : 2
Format : AC-3
Format/Info : Audio Coding 3
Format settings, Endianness : Big
Codec ID : A_AC3
Duration : 55 min 21 s
Bit rate mode : Constant
Bit rate : 192 kb/s
Channel(s) : 2 channels
Channel positions : Front: L R
Sampling rate : 48.0 kHz
Frame rate : 31.250 FPS (1536 SPF)
Bit depth : 16 bits
Compression mode : Lossy
Stream size : 76.0 MiB (2%)
Title : TrueDubbing Studio
Language : Russian
Service kind : Complete Main
Default : Yes
Forced : No

Audio #2
ID : 3
Format : AC-3
Format/Info : Audio Coding 3
Format settings, Endianness : Big
Codec ID : A_AC3
Duration : 55 min 21 s
Bit rate mode : Constant
Bit rate : 384 kb/s
Channel(s) : 6 channels
Channel positions : Front: L C R, Side: L R, LFE
Sampling rate : 48.0 kHz
Frame rate : 31.250 FPS (1536 SPF)
Bit depth : 16 bits
Compression mode : Lossy
Stream size : 152 MiB (4%)
Title : Jaskier
Language : Russian
Service kind : Complete Main
Default : No
Forced : No

Audio #3
ID : 4
Format : AC-3
Format/Info : Audio Coding 3
Format settings, Endianness : Big
Codec ID : A_AC3
Duration : 55 min 21 s
Bit rate mode : Constant
Bit rate : 384 kb/s
Channel(s) : 6 channels
Channel positions : Front: L C R, Side: L R, LFE
Sampling rate : 48.0 kHz
Frame rate : 31.250 FPS (1536 SPF)
Bit depth : 16 bits
Compression mode : Lossy
Stream size : 152 MiB (4%)
Language : English
Service kind : Complete Main
Default : No
Forced : No

Text #1
ID : 5
Format : UTF-8
Codec ID : S_TEXT/UTF8
Codec ID/Info : UTF-8 Plain Text
Title : Fors
Language : Russian
Default : Yes
Forced : Yes

Text #2
ID : 6
Format : UTF-8
Codec ID : S_TEXT/UTF8
Codec ID/Info : UTF-8 Plain Text
Language : English
Default : No
Forced : No



Скачать Медичи.Правители.Флоренции.Medici.Masters.of.Florence.(Сезон.01).(Серджо.Мимика-Геззан).[2016.исторический.драма.WEBRip].[1080p].[DUB].+.[MVO].(Jaskier)+[Engl].torrent без регистрации
Золото ЗОЛОТАЯ РАЗДАЧА! СКАЧАННОЕ НЕ ЗАСЧИТЫВАЕТСЯ! Золото
Дата: Зарегистрирован   [ Тип: внутренний ] Как тут cкачать?
MAGNET ссылка
MAGNET ссылка


Скачать .torrent

72 KB

Статус: проверено DHT
Скачан: торрент - 20 раз, раздача полностью - 11 раз
Размер: 28,19 GB
Оценка:  - (Голосов: 0)
Поблагодарили: 0
Поделиться ссылкой на эту раздачу с друзьями:
В контактеFacebookОдноклассникиTwitterLivejournalМой МирLiveinternet
 

 
Показать сообщения:    


Вы не можете начинать темы
Вы не можете отвечать на сообщения
Вы не можете редактировать свои сообщения
Вы не можете удалять свои сообщения
Вы не можете голосовать в опросах
Вы не можете прикреплять файлы к сообщениям
Вы можете скачивать файлы