Loading...
Error

Скачать Приходящий по ночам / The Night Walker (Уильям Касл) [1964, ужасы, триллер, детектив, BDRemux] [1080р] [VO (В. Рутилов)]+[Оригинал Eng]+[Sub Rus, Eng]x2 торрент без регистрации

Статистика раздачи
Размер:  21,05 GB   |    Скачан:  8 раз
Сидов:  1  [  0 KB/s  ]  
 
 
 
Автор Сообщение

Marsianka

[] 

Информация о фильме
Название: Приходящий по ночам
Оригинальное название: The Night Walker
Год выхода: 1964
Жанр: ужасы, триллер, детектив
Режиссер: Уильям Касл
В ролях: Роберт Тейлор, Барбара Стэнвик, Джуди Мередит, Хейден Рорк, Рошелль Хадсон, Джесс Баркер, Марджори Беннетт, Ллойд Бокнер, Тецу Комай, Поли Кларк, Пол Фрис, Кэтлин Малкуинн

Опсиание: Богатая вдова слепого и потому жутко ревнивого учёного, недавно погибшего при взрыве, начинает страдать от ночных кошмаров, в которых она видит своего покойного мужа преследующим её.



Страна: США
Продолжительность: 01:25:48
Любительский (одноголосый закадровый) В. Рутилов
Субтитры: русские, английские
Оригинальная аудиодорожка: английский
Файл
Качество: BDRemux 1080р
Видео: AVC / 1920x1080 / 16:9 / 23.976 fps / 30998 kbps / High@L4.1
Аудио 1: Rus / DTS-HD MA / 48.0 KHz / 2.0 / 2048 kbps / 24 bit (DTS Core 48.0 KHz / 2.0 / 1509 kbps / 24 bit) / В. Рутилов
Аудио 2: Eng / DTS-HD MA / 48.0 KHz / 2.0 / 1988 kbps / 24 bit (DTS Core 48.0 KHz / 2.0 / 1509 kbps / 24 bit)
Аудио 3: Eng / AC3 / 48.0 KHz / 2.0 / 192kbps / Commentary
Общее
Уникальный идентификатор : 257853856750322116685782023000351162904 (0xC1FCD8AD9CD419396DA5EE227F31C218)
Полное имя : The.Night.Walker.1964.BDRemux.1080p.mkv
Формат : Matroska
Версия формата : Version 4 / Version 2
Размер файла : 21,1 Гбайт
Продолжительность : 1 ч. 25 м.
Режим общего битрейта : Переменный
Общий поток : 35,1 Мбит/сек
Название фильма : The.Night.Walker.1964.BDRemux.1080p-porvaliparus
Дата кодирования : UTC 2018-03-06 02:34:43
Программа кодирования : mkvmerge v20.0.0 ('I Am The Sun') 64-bit
Библиотека кодирования : libebml v1.3.5 + libmatroska v1.4.8

Видео
Идентификатор : 1
Формат : AVC
Формат/Информация : Advanced Video Codec
Профиль формата : High@L4.1
Настройки формата : CABAC / 4 Ref Frames
Параметр CABAC формата : Да
Параметр RefFrames формата : 4 кадра
Идентификатор кодека : V_MPEG4/ISO/AVC
Продолжительность : 1 ч. 25 м.
Вид битрейта : Переменный
Битрейт : 30,9 Мбит/сек
Максимальный битрейт : 38,0 Мбит/сек
Ширина : 1920 пикселей
Высота : 1080 пикселей
Соотношение сторон : 16:9
Режим частоты кадров : Постоянный
Частота кадров : 23,976 (24000/1001) кадра/сек
Цветовое пространство : YUV
Субдискретизация насыщенности : 4:2:0
Битовая глубина : 8 бит
Тип развёртки : Прогрессивная
Бит/(Пиксели*Кадры) : 0.621
Размер потока : 18,5 Гбайт (88%)
Заголовок : The.Night.Walker.1964.BDRemux.1080p
Default : Да
Forced : Нет

Аудио #1
Идентификатор : 2
Формат : DTS
Формат/Информация : Digital Theater Systems
Профиль формата : MA / Core
Идентификатор кодека : A_DTS
Продолжительность : 1 ч. 25 м.
Вид битрейта : Переменный / Постоянный
Битрейт : 2048 Кбит/сек / 1509 Кбит/сек
Каналы : 2 канала
Расположение каналов : Front: L R
Частота : 48,0 КГц
Частота кадров : 93,750 кадра/сек (512 SPF)
Битовая глубина : 24 бит
Метод сжатия : Без потерь / Lossy
Размер потока : 1,24 Гбайт (6%)
Заголовок : VO [В. Рутилов]
Язык : Russian
Default : Да
Forced : Нет

Аудио #2
Идентификатор : 3
Формат : DTS
Формат/Информация : Digital Theater Systems
Профиль формата : MA / Core
Идентификатор кодека : A_DTS
Продолжительность : 1 ч. 25 м.
Вид битрейта : Переменный / Постоянный
Битрейт : 1988 Кбит/сек / 1509 Кбит/сек
Каналы : 2 канала
Расположение каналов : Front: L R
Частота : 48,0 КГц
Частота кадров : 93,750 кадра/сек (512 SPF)
Битовая глубина : 24 бит
Метод сжатия : Без потерь / Lossy
Размер потока : 1,19 Гбайт (6%)
Язык : English
Default : Нет
Forced : Нет

Аудио #3
Идентификатор : 4
Формат : AC-3
Формат/Информация : Audio Coding 3
Идентификатор кодека : A_AC3
Продолжительность : 1 ч. 25 м.
Вид битрейта : Постоянный
Битрейт : 192 Кбит/сек
Каналы : 2 канала
Расположение каналов : Front: L R
Частота : 48,0 КГц
Частота кадров : 31,250 кадров/сек (1536 SPF)
Битовая глубина : 16 бит
Метод сжатия : С потерями
Размер потока : 118 Мбайт (1%)
Заголовок : Commentary
Язык : English
Default : Нет
Forced : Нет

Текст #1
Идентификатор : 5
Формат : UTF-8
Идентификатор кодека : S_TEXT/UTF8
Идентификатор кодека/Информация : UTF-8 Plain Text
Продолжительность : 1 ч. 25 м.
Битрейт : 82 бит/сек
ElementCount : 855
Размер потока : 51,8 Кбайт (0%)
Заголовок : Contello
Язык : Russian
Default : Нет
Forced : Нет

Текст #2
Идентификатор : 6
Формат : UTF-8
Идентификатор кодека : S_TEXT/UTF8
Идентификатор кодека/Информация : UTF-8 Plain Text
Продолжительность : 1 ч. 24 м.
Битрейт : 55 бит/сек
ElementCount : 1160
Размер потока : 34,3 Кбайт (0%)
Заголовок : SDH
Язык : English
Default : Нет
Forced : Нет

Меню
00:00:00.000 : en:00:00:00.000
00:05:54.604 : en:00:05:54.604
00:10:59.951 : en:00:10:59.951
00:20:16.799 : en:00:20:16.799
00:30:44.468 : en:00:30:44.468
00:37:39.591 : en:00:37:39.591
00:42:42.185 : en:00:42:42.185
00:51:47.438 : en:00:51:47.438
01:01:33.273 : en:01:01:33.273
01:09:15.568 : en:01:09:15.568
01:14:18.287 : en:01:14:18.287
01:19:49.410 : en:01:19:49.410



Скачать Приходящий.по.ночам.The.Night.Walker.(Уильям.Касл).[1964.ужасы.триллер.детектив.BDRemux].[1080р].[VO.(В.Рутилов)]+[Оригинал.Eng]+[Sub.Rus.Eng]x2.torrent без регистрации
Золото ЗОЛОТАЯ РАЗДАЧА! СКАЧАННОЕ НЕ ЗАСЧИТЫВАЕТСЯ! Золото
Дата: Зарегистрирован   [ Тип: внутренний ] Как тут cкачать?
MAGNET ссылка
MAGNET ссылка


Скачать .torrent

54 KB

Статус: проверено DHT
Скачан: торрент - 8 раз, раздача полностью - 0 раз
Размер: 21,05 GB
Оценка:  - (Голосов: 0)
Поблагодарили: 0
Поделиться ссылкой на эту раздачу с друзьями:
В контактеFacebookОдноклассникиTwitterLivejournalМой МирLiveinternet
 

 
Показать сообщения:    


Вы не можете начинать темы
Вы не можете отвечать на сообщения
Вы не можете редактировать свои сообщения
Вы не можете удалять свои сообщения
Вы не можете голосовать в опросах
Вы не можете прикреплять файлы к сообщениям
Вы можете скачивать файлы