Loading...
Error

Скачать Фатима (Семён Долидзе) [1958, драма, мелодрама, приключения, DVDRip-AVC] [Оригинал Rus] торрент без регистрации

Статистика раздачи
Размер:  1,09 GB   |    Скачан:  14 раз
Сидов:  1  [  0 KB/s  ]  
 
 
 
Автор Сообщение

Marsianka

[] 

Страна: СССР
Производство: Грузия-фильм

Жанр: драма, мелодрама, приключения
Год выпуска: 1958
Продолжительность: 01:36:01

Перевод: Не требуется
Cубтитры: нет
Оригинальная аудиодорожка: русский

Режиссер: Семён Долидзе

В ролях:
Тамара Кокова, Владимир Тхапсаев, Отар Мегвинетухуцеси, Гиули Чохонелидзе, Меги Цулукидзе, Иван Русинов, Акакий Васадзе, Дмитрий Мамиев, Давид Сохадзе, Екатерина (Цаца) Амиреджиби, Эсма Цховребова...
Об актёрах подробней

Описание:
По одноименному произведению осетинского писателя Коста Хетагурова.
Осетинскому князю подкидывают грудную девочку. В память об умершей дочери князь удочеряет малютку. Проходят годы. Красавица Фатима (Тамара Кокова) и сын князя Джамбулат (Отар Мегвинетухуцеси) любят друг друга. Влюбляется в Фатиму и батрак князя Ибрагим (Гиули Чохонелидзе), но наблюдая за счастливой парой, скрывает свои чувства. Начинается русско-турецкая война и Джамбулат первый по жеребьевке на пять лет покидает родные края и любимую. Проходят пять, десять лет. Годы скорби не приближают встречу возлюбленных. По закону гор Фатиму вынуждают выйти замуж. На этом настаивает и князь. Девушка отвергает княжеских женихов и выбирает старого друга - холопа Ибрагима, работающего теперь у русского инженера. Ибрагим сумел создать счастливую семью. Первенца назвали Джамбулатом. Фатима не чает души в муже и детях. Проходит пять лет в радости и покое. Неожиданно возвращается скитавшийся по свету после плена Джамбулат, по-прежнему любящий Фатиму, - и требует, чтобы она была с ним... Фатима отказывается. Во время поединка Джамбулат вероломно убивает Ибрагима. Фатима сходит с ума...


Источник: DVD5 R5
Качество видео: DVDRip-AVC
Формат видео: MKV

Видео: 696->758x568 (4:3), 25 fps, H264 ~ 1429 kbps avg, 0.145 bit/pixel
Аудио: 48 kHz, Dolby Digital AC3 2.0, 192 kbps

Раздача от:

Общее
Полное имя : Fatima.1958.DVDRip-AVC_[New-team]_by_AVP_Studio.mkv
Формат : Matroska
Версия формата : Version 2
Размер файла : 1,09 Гбайт
Продолжительность : 1 ч. 36 м.
Общий поток : 1623 Кбит/сек
Дата кодирования : UTC 2017-08-14 16:54:26
Программа кодирования : mkvmerge v6.1.0 ('Old Devil') built on Mar 4 2013 09:10:42
Библиотека кодирования : libebml v1.3.0 + libmatroska v1.4.0

Видео
Идентификатор : 1
Формат : AVC
Формат/Информация : Advanced Video Codec
Профиль формата : High@L4.1
Параметр CABAC формата : Да
Параметр RefFrames формата : 10 кадров
Идентификатор кодека : V_MPEG4/ISO/AVC
Продолжительность : 1 ч. 36 м.
Битрейт : 1429 Кбит/сек
Ширина : 696 пикселей
Высота : 568 пикселей
Соотношение сторон : 4:3
Режим частоты кадров : Постоянный
Частота кадров : 25,000 кадров/сек
Цветовое пространство : YUV
Субдискретизация насыщенности : 4:2:0
Битовая глубина : 8 бит
Тип развёртки : Прогрессивная
Бит/(Пиксели*Кадры) : 0.145
Размер потока : 960 Мбайт (86%)
Библиотека кодирования : x264 core 130 r2273 b3065e6
Настройки программы : cabac=1 / ref=10 / deblock=1:-2:-1 / analyse=0x3:0x113 / me=umh / subme=10 / psy=1 / psy_rd=1.00:0.00 / mixed_ref=1 / me_range=32 / chroma_me=1 / trellis=2 / 8x8dct=1 / cqm=0 / deadzone=21,11 / fast_pskip=1 / chroma_qp_offset=-2 / threads=6 / lookahead_threads=1 / sliced_threads=0 / nr=0 / decimate=0 / interlaced=0 / bluray_compat=0 / constrained_intra=0 / bframes=8 / b_pyramid=2 / b_adapt=2 / b_bias=0 / direct=3 / weightb=1 / open_gop=0 / weightp=2 / keyint=250 / keyint_min=25 / scenecut=40 / intra_refresh=0 / rc=2pass / mbtree=0 / bitrate=1429 / ratetol=1.0 / qcomp=0.60 / qpmin=0 / qpmax=69 / qpstep=4 / cplxblur=20.0 / qblur=0.5 / ip_ratio=1.40 / pb_ratio=1.30 / aq=1:1.00
Default : Да
Forced : Нет

Аудио
Идентификатор : 2
Формат : AC-3
Формат/Информация : Audio Coding 3
Параметр Endianness формата : Big
Идентификатор кодека : A_AC3
Продолжительность : 1 ч. 36 м.
Вид битрейта : Постоянный
Битрейт : 192 Кбит/сек
Каналы : 2 канала
Расположение каналов : Front: L R
Частота : 48,0 КГц
Частота кадров : 31,250 кадров/сек (1536 SPF)
Битовая глубина : 16 бит
Метод сжатия : С потерями
Размер потока : 132 Мбайт (12%)
Default : Да
Forced : Нет



Скачать Фатима.(Семён.Долидзе).[1958.драма.мелодрама.приключения.DVDRip-AVC].[Оригинал.Rus].torrent без регистрации
Золото ЗОЛОТАЯ РАЗДАЧА! СКАЧАННОЕ НЕ ЗАСЧИТЫВАЕТСЯ! Золото
Дата: Зарегистрирован   [ Тип: внешний ] Как тут cкачать?
MAGNET ссылка
MAGNET ссылка


Скачать .torrent

12 KB

Статус: проверено DHT
Скачан: торрент - 14 раз, раздача полностью - 4 раз
Размер: 1,09 GB
Оценка:  - (Голосов: 0)
Поблагодарили: 0
Поделиться ссылкой на эту раздачу с друзьями:
В контактеFacebookОдноклассникиTwitterLivejournalМой МирLiveinternet
 

 
Показать сообщения:    


Вы не можете начинать темы
Вы не можете отвечать на сообщения
Вы не можете редактировать свои сообщения
Вы не можете удалять свои сообщения
Вы не можете голосовать в опросах
Вы не можете прикреплять файлы к сообщениям
Вы можете скачивать файлы