Loading...
Error

Скачать Динозавр: Тайна затерянного мира / Baby: Secret of the Lost Legend (Билл Л. Нортон) [1985, фантастика, приключения, семейный, BDRemux] [1080p] [MVO (SDI Media)]+[Eng] торрент без регистрации

Статистика раздачи
Размер:  15,81 GB   |    Скачан:  8 раз
Сидов:  1  [  0 KB/s  ]  
 
 
 
Автор Сообщение

Marsianka

[] 

Информация о фильме
Название: Динозавр: Тайна затерянного мира
Оригинальное название: Baby: Secret of the Lost Legend
Год выхода: 1985
Жанр: фантастика, приключения, семейный
Режиссер: Билл Л. Нортон
В ролях: Уильям Кэтт, Шон Янг, Патрик МакГуэн, Джулиан Феллоуз, Хью Куарши, Олу Джейкобс, Эдди Тэгоу, Эдвард Хардвик, Джулиан Карри

О фильме:
Семья палеонтологов обнаружила в Кот-д’Ивуар (Африка) самку и детеныша бронтозавра — последних из давно исчезнувших с планеты Земля динозавров. Теперь перед ними встала задача спасти животных от охотников...



Страна: США
Студия: Silver Screen Partners II, Touchstone Pictures
Продолжительность: 01:32:43
Перевод: Профессиональный многоголосый,закадровый

Файл
Кодек: h.264
Качество: BDRemux 1080p
Видео: MPEG-4 AVC, 21.8 Mбит/с, 1920x1080, 23,976 кадр/с

Русский (AC3, 6 ch, 448 Кбит/с) / Профессиональный многоголосый (SDI Media)
Английский (DTS-HD MA, 6 ch, 2132 Кбит/с)
Субтитры: Нет
Семпл
Огромное спасибо FREEDONOR за Blu-ray [Custom]
General
Unique ID : 288092024513178580058648350037697520023 (0xD8BC8173E924EC2156F7EEC1C03A6197)
Complete name : D:uTorrentDinozavr.1985.BDRemux.1080p.MediaClub.mkv
Format : Matroska
Format version : Version 4 / Version 2
File size : 15.8 GiB
Duration : 1 h 32 min
Overall bit rate mode : Variable
Overall bit rate : 24.4 Mb/s
Encoded date : UTC 2018-03-11 11:08:09
Writing application : mkvmerge v19.0.0 ('Brave Captain') 64-bit
Writing library : libebml v1.3.5 + libmatroska v1.4.8
Cover : Yes
Attachments : cover.jpg

Video
ID : 1
Format : AVC
Format/Info : Advanced Video Codec
Format profile : High@L4.1
Format settings : CABAC / 4 Ref Frames
Format settings, CABAC : Yes
Format settings, RefFrames : 4 frames
Codec ID : V_MPEG4/ISO/AVC
Duration : 1 h 32 min
Bit rate mode : Variable
Bit rate : 21.8 Mb/s
Maximum bit rate : 33.0 Mb/s
Width : 1 920 pixels
Height : 1 080 pixels
Display aspect ratio : 16:9
Frame rate mode : Constant
Frame rate : 23.976 (24000/1001) FPS
Color space : YUV
Chroma subsampling : 4:2:0
Bit depth : 8 bits
Scan type : Progressive
Bits/(Pixel*Frame) : 0.439
Stream size : 14.1 GiB (89%)
Title : BDRemux by Silverok
Default : Yes
Forced : No

Audio #1
ID : 2
Format : AC-3
Format/Info : Audio Coding 3
Codec ID : A_AC3
Duration : 1 h 32 min
Bit rate mode : Constant
Bit rate : 448 kb/s
Channel(s) : 6 channels
Channel positions : Front: L C R, Side: L R, LFE
Sampling rate : 48.0 kHz
Frame rate : 31.250 FPS (1536 SPF)
Bit depth : 16 bits
Compression mode : Lossy
Stream size : 297 MiB (2%)
Title : Профессиональный многоголосый (SDI Media)
Language : Russian
Service kind : Complete Main
Default : Yes
Forced : No

Audio #2
ID : 3
Format : DTS
Format/Info : Digital Theater Systems
Format profile : MA / Core
Codec ID : A_DTS
Duration : 1 h 32 min
Bit rate mode : Variable / Constant
Bit rate : 2 132 kb/s / 1 509 kb/s
Channel(s) : 6 channels
Channel positions : Front: L C R, Side: L R, LFE
Sampling rate : 48.0 kHz
Frame rate : 93.750 FPS (512 SPF)
Bit depth : 16 bits
Compression mode : Lossless / Lossy
Stream size : 1.38 GiB (9%)
Language : English
Default : No
Forced : No

Menu
00:00:00.000 : en:
00:12:27.163 : en:
00:21:18.568 : en:
00:32:48.800 : en:
00:46:48.847 : en:
00:58:30.798 : en:
01:05:52.782 : en:
01:14:16.076 : en:
01:32:53.693 : en:
Релиз от: | Silverok



Скачать Динозавр.Тайна.затерянного.мира.Baby.Secret.of.the.Lost.Legend.(Билл.Л.Нортон).[1985.фантастика.приключения.семейный.BDRemux].[1080p].[MVO.(SDI.Media)]+[Eng].torrent без регистрации
Золото ЗОЛОТАЯ РАЗДАЧА! СКАЧАННОЕ НЕ ЗАСЧИТЫВАЕТСЯ! Золото
Дата: Зарегистрирован   [ Тип: внутренний ] Как тут cкачать?
MAGNET ссылка
MAGNET ссылка


Скачать .torrent

41 KB

Статус: проверено DHT
Скачан: торрент - 8 раз, раздача полностью - 0 раз
Размер: 15,81 GB
Оценка:  - (Голосов: 0)
Поблагодарили: 0
Поделиться ссылкой на эту раздачу с друзьями:
В контактеFacebookОдноклассникиTwitterLivejournalМой МирLiveinternet
 

 
Показать сообщения:    


Вы не можете начинать темы
Вы не можете отвечать на сообщения
Вы не можете редактировать свои сообщения
Вы не можете удалять свои сообщения
Вы не можете голосовать в опросах
Вы не можете прикреплять файлы к сообщениям
Вы можете скачивать файлы