Loading...
Error

Скачать Подземелье ведьм (Юрий Мороз) [1989, фантастика, фэнтези, мелодрама, приключения, DVDRip-AVC] [Оригинал Rus] торрент без регистрации

Статистика раздачи
Размер:  746 MB   |    Скачан:  10 раз

Полного источника не было: 22 минуты

 
 
 
Автор Сообщение

Marsianka

[] 

Информация о фильме
Название: Подземелье ведьм
Год выхода: 1989
Жанр: фантастика, фэнтези, мелодрама, приключения
Режиссер: Юрий Мороз
В ролях: Сергей Жигунов, Марина Левтова, Николай Караченцов, Дмитрий Певцов, Игорь Ясулович, Жанна Прохоренко, Владимир Талашко, Сергей Быстрицкий, Анатолий Мамбетов, Леонид Громов, Леонид Филаткин, Виллор Кузнецов, Андрей Леонов, Владислав Ковальков, Наталья Каменская.

О фильме :
Корабль дальних космических исследований "Титан" направляется с Земли к планете КС 63/12 "ЭВУР" - "ЭВолюционный УРод". На планете нарушены законы эволюции: одновременно существуют виды животных разных исторических эпох. Полудикие племена кочевников ведут постоянную междоусобную войну. На Эвуре также находится база земной этнографической экспедиции. Ее руководитель Конрад Жмунда пошел на прямые контакты с племенами, что категорически запрещено инструкцией. И тогда с "Титана" на Эвур посылают инспектора по контактам Андрея Брюса, которому также предстоит выяснить, откуда на планете бетонные дороги, над которыми летают птеродактили, и стальные мечи у дикарей каменного века. Но вскоре после его прибытия на базу землян нападает племя, возглавляемое кровожадным Октином Хашем. Четверо землян убиты, а двое взяты в плен. Их хотят принести в жертву каким-то "ведьмам"...



Страна: СССР, Чехословакия
Студия: Студия Горького, Госкино, Ладья, Czechoslovak Television, Filmové Studio Barrandov.
Продолжительность: 01:20:44
Язык: Русский

Файл
Формат: MKV
Качество: DVDRip-AVC
Видео: MPEG-4 AVC, 704x388, ~ 1214 Кбит/с
Аудио: AAC-HE, 2 ch, ~ 76 Кбит/с
Общее
Уникальный идентификатор : 73504653424837855125250832079475607353 (0x374C7B3704CF616DA0BE979AAC9E8739)
Полное имя : D:MOVIESPodzemele.vedm.1989.ExKinoRay.mkv
Формат : Matroska
Версия формата : Version 2
Размер файла : 746 Мбайт
Продолжительность : 1 ч. 20 м.
Общий поток : 1292 Кбит/сек
Дата кодирования : UTC 2018-03-12 10:31:22
Программа кодирования : mkvmerge v21.0.0 ('Tardigrades Will Inherit The Earth') 64-bit
Библиотека кодирования : libebml v1.3.5 + libmatroska v1.4.8

Видео
Идентификатор : 1
Формат : AVC
Формат/Информация : Advanced Video Codec
Профиль формата : High@L4.1
Параметр CABAC формата : Да
Параметр RefFrames формата : 10 кадров
Идентификатор кодека : V_MPEG4/ISO/AVC
Продолжительность : 1 ч. 20 м.
Битрейт : 1214 Кбит/сек
Ширина : 704 пикселя
Высота : 388 пикселей
Соотношение сторон : 16:9
Режим частоты кадров : Постоянный
Частота кадров : 25,000 кадров/сек
Цветовое пространство : YUV
Субдискретизация насыщенности : 4:2:0
Битовая глубина : 8 бит
Тип развёртки : Прогрессивная
Бит/(Пиксели*Кадры) : 0.178
Размер потока : 701 Мбайт (94%)
Библиотека кодирования : x264 core 155 r2901 7d0ff22
Настройки программы : cabac=1 / ref=10 / deblock=1:-3:-3 / analyse=0x3:0x133 / me=umh / subme=11 / psy=1 / psy_rd=1.00:0.10 / mixed_ref=1 / me_range=32 / chroma_me=1 / trellis=2 / 8x8dct=1 / cqm=0 / deadzone=21,11 / fast_pskip=0 / chroma_qp_offset=-3 / threads=6 / lookahead_threads=1 / sliced_threads=0 / nr=0 / decimate=0 / interlaced=0 / bluray_compat=0 / constrained_intra=0 / bframes=10 / b_pyramid=2 / b_adapt=2 / b_bias=0 / direct=3 / weightb=1 / open_gop=0 / weightp=2 / keyint=250 / keyint_min=24 / scenecut=40 / intra_refresh=0 / rc_lookahead=40 / rc=2pass / mbtree=1 / bitrate=1214 / ratetol=1.0 / qcomp=0.60 / qpmin=0 / qpmax=69 / qpstep=4 / cplxblur=20.0 / qblur=0.5 / vbv_maxrate=50000 / vbv_bufsize=62500 / nal_hrd=none / filler=0 / ip_ratio=1.40 / aq=3:1.00
Default : Да
Forced : Нет

Аудио
Идентификатор : 2
Формат : AAC
Формат/Информация : Advanced Audio Codec
Профиль формата : HE-AAC / LC
Идентификатор кодека : A_AAC
Продолжительность : 1 ч. 20 м.
Битрейт : 76,0 Кбит/сек
Каналы : 2 канала
Расположение каналов : Front: L R
Частота : 48,0 КГц / 24,0 КГц
Частота кадров : 23,438 кадра/сек (1024 SPF)
Метод сжатия : С потерями
Задержка видео : 31 мс.
Размер потока : 43,9 Мбайт (6%)
Default : Да
Forced : Нет
Релиз от:



Скачать Подземелье.ведьм.(Юрий.Мороз).[1989.фантастика.фэнтези.мелодрама.приключения.DVDRip-AVC].[Оригинал.Rus].torrent без регистрации
Золото ЗОЛОТАЯ РАЗДАЧА! СКАЧАННОЕ НЕ ЗАСЧИТЫВАЕТСЯ! Золото
Дата: Зарегистрирован   [ Тип: внутренний ] Как тут cкачать?
MAGNET ссылка
MAGNET ссылка


Скачать .torrent

16 KB

Статус: проверено DHT
Скачан: торрент - 10 раз, раздача полностью - 2 раз
Размер: 746 MB
Оценка:  - (Голосов: 0)
Поблагодарили: 0
Поделиться ссылкой на эту раздачу с друзьями:
В контактеFacebookОдноклассникиTwitterLivejournalМой МирLiveinternet
 

 
Показать сообщения:    


Вы не можете начинать темы
Вы не можете отвечать на сообщения
Вы не можете редактировать свои сообщения
Вы не можете удалять свои сообщения
Вы не можете голосовать в опросах
Вы не можете прикреплять файлы к сообщениям
Вы можете скачивать файлы