Loading...
Error

Скачать Огненный лис / Firefox (Клинт Иствуд / Clint Eastwood) [1982, фантастика, боевик, триллер, BDRip] [720p] [MVO] + [Sub] Eng + [Original] Eng торрент без регистрации

Статистика раздачи
Размер:  8,6 GB   |    Скачан:  13 раз
Сидов:  1  [  0 KB/s  ]  
 
 
 
Автор Сообщение

leon030982

[] 

Огненный лис / Firefox
Год выпуска: 1982
Страна: США
Жанр: фантастика, боевик, триллер
Продолжительность: 02:04:40
Перевод: Профессиональный (многоголосый закадровый) Премьер Видеофильм
Субтитры: английские

Режиссер: Клинт Иствуд / Clint Eastwood

В ролях: Клинт Иствуд, Фредди Джонс, Дэвид Хаффман, Уоррен Кларк, Рональд Лейси, Кеннет Колли, Клаус Лёвич, Найджел Хоторн, Стефан Шнабель, Томас Хилл, Клайв Меррисон, Кай Вулфф, Димитра Арлисс, Остин Уиллис, Майкл Карри, Джеймс Стейли, Уорд Костильо, Алан Тилверн, Оливер Коттон, Бернард Беренс, Ричард Дэрр, Вуди Еней, Бернард Эрхард, Хью Фрейзер, Дэвид Гант, Джон Грилло, Czeslaw Grocholski, Barrie Hougton, Нил Хант, Винсент Дж. Исаак, Алексей Явдокимов, Вольф Калер, Юджин Липински, Филлип Литтелл, Курт Лоуэнс, Лев Мэйлер, Фритц Мэйнс, Дэвид Мейерс, Альфредо Михелсон, Zeno Nahayevsky, Джордж Оррисон, Tony Papenfuss, Оливье Пьер, Гриша Плоткин, Джордж Правда, Джон Ратценбергер, Alex Rodine, Лэнс Розен, Юджин Шерер, Уорвик Симс, Майк Сперо, Малкольм Сторри, Крис Винфилд, Джон Йэтс, Александр Зейл, Игорь Зацепин, Константин Златев, Ларри Гуардино

Описание: Как адская летучая мышь проносится он в небе со скоростью, в шесть раз превышающей скорость звука. Словно мерцающий призрак, остаётся он невидимым для самых чувствительных радаров. Будто смертельно ядовитая кобра, он поражает противника своими ювелирно точными ракетами. Он — истребитель МИГ-31: самое смертельное оружие, когда-либо созданное человеком. Этот сверхсекретный самолёт был сделан в СССР и получил кодовое название «Огненный лис». Чтобы баланс сил в ходе Холодной Войны не был нарушен и наши с вами соотечественники не получили преимущества, американцы решают похитить это чудо техники.



Тип релиза: BDRip 720p
Контейнер: MKV
Видео: 1280x534 at 23.976 fps, x264@L4.1, crf, ~7994 kbps avg
Аудио 1: Russian: 48 kHz, AC3, 2/0 (L,R) ch, ~192 kbps avg |Многоголосый закадровый, Премьер Видеофильм|
Аудио 2: English: 48 kHz, DTS, 3/2 (L,C,R,l,r) + LFE ch, ~1536 kbps avg
Общее
Уникальный идентификатор : 181894223374960467339956275076958017868 (0x88D78D9B4BF50B55A669C559E4F0594C)
Полное имя : E:\!!!\Firefox.1982.720p.BluRay.Rus.Eng.mkv
Формат : Matroska
Версия формата : Version 2
Размер файла : 8,60 Гбайт
Продолжительность : 2 ч. 4 м.
Общий поток : 9870 Кбит/сек
Дата кодирования : UTC 2012-01-08 09:19:22
Программа кодирования : mkvmerge v3.4.0 ('Rapunzel') збірка від May 15 2010 09:38:20
Библиотека кодирования : libebml v0.8.0 + libmatroska v0.9.0

Видео
Идентификатор : 1
Формат : AVC
Формат/Информация : Advanced Video Codec
Профиль формата : High@L4.1
Параметр CABAC формата : Да
Параметр ReFrames формата : 12 кадров
Идентификатор кодека : V_MPEG4/ISO/AVC
Продолжительность : 2 ч. 4 м.
Битрейт : 7972 Кбит/сек
Ширина : 1280 пикселей
Высота : 534 пикселя
Соотношение сторон : 2,40:1
Частота кадров : 23,976 кадра/сек
Цветовое пространство : YUV
Субдискретизация насыщенности : 4:2:0
Битовая глубина : 8 бит
Тип развёртки : Прогрессивная
Бит/(Пиксели*Кадры) : 0.486
Размер потока : 6,94 Гбайт (81%)
Библиотека кодирования : x264 core 119 r2106 07efeb4
Настройки программы : cabac=1 / ref=12 / deblock=1:-3:-3 / analyse=0x3:0x113 / me=esa / subme=9 / psy=1 / psy_rd=1.15:0.00 / mixed_ref=1 / me_range=24 / chroma_me=1 / trellis=2 / 8x8dct=1 / cqm=0 / deadzone=6,6 / fast_pskip=0 / chroma_qp_offset=-2 / threads=6 / sliced_threads=0 / nr=0 / decimate=0 / interlaced=0 / bluray_compat=0 / constrained_intra=0 / bframes=8 / b_pyramid=2 / b_adapt=2 / b_bias=0 / direct=3 / weightb=1 / open_gop=0 / weightp=2 / keyint=250 / keyint_min=23 / scenecut=40 / intra_refresh=0 / rc=crf / mbtree=0 / crf=16.9 / qcomp=0.60 / qpmin=0 / qpmax=69 / qpstep=4 / ip_ratio=1.10 / pb_ratio=1.10 / aq=1:0.65
Язык : English

Аудио #1
Идентификатор : 2
Формат : AC-3
Формат/Информация : Audio Coding 3
Расширение режима : CM (complete main)
Идентификатор кодека : A_AC3
Продолжительность : 2 ч. 4 м.
Вид битрейта : Постоянный
Битрейт : 192 Кбит/сек
Каналы : 2 канала
Расположение каналов : Front: L R
Частота : 48,0 КГц
Битовая глубина : 16 бит
Метод сжатия : С потерями
Размер потока : 171 Мбайт (2%)
Заголовок : AC3 2.0 @ 192 kbps - Многоголосый закадровый, Премьер Видеофильм
Язык : Russian

Аудио #2
Идентификатор : 3
Формат : DTS
Формат/Информация : Digital Theater Systems
Идентификатор кодека : A_DTS
Продолжительность : 2 ч. 4 м.
Вид битрейта : Постоянный
Битрейт : 1510 Кбит/сек
Каналы : 6 каналов
Расположение каналов : Front: L C R, Side: L R, LFE
Частота : 48,0 КГц
Битовая глубина : 24 бит
Метод сжатия : С потерями
Размер потока : 1,31 Гбайт (15%)
Заголовок : DTS 5.1 @ 1536 kbps
Язык : English

Текст
Идентификатор : 4
Формат : UTF-8
Идентификатор кодека : S_TEXT/UTF8
Идентификатор кодека/Информация : UTF-8 Plain Text
Язык : English

Меню
00:00:00.000 : :Scorching Memories
00:04:41.948 : :About Firefox
00:09:11.551 : :We Need You
00:12:03.973 : :Just Have to Succeed
00:16:46.923 : :Beginning of the Road
00:21:15.649 : :Suspicious Reception
00:22:53.080 : :Kontarsky's Counterplot
00:26:21.663 : :Stroll in Moscow
00:29:17.506 : :Murder...and a New Identity
00:34:23.353 : :Shadowed in the Subway
00:39:47.719 : :Lavatory Menace
00:42:33.259 : :Seeking Criminals
00:47:25.384 : :Another Guise
00:49:29.091 : :Waiting Game
00:51:31.714 : :Battered Corpse; Man in the Photo
00:54:53.290 : :Dropped Off
00:56:25.882 : :Dr. Baranovich
00:57:54.638 : :Heavy Traffic
01:04:03.173 : :Scenario for Theft
01:08:20.346 : :Infiltrating the Base
01:10:48.494 : :The Net Tightens
01:12:13.037 : :Torment in the Shower
01:14:51.821 : :The Secret Is Out
01:16:45.559 : :Sacrificed Lives
01:21:25.881 : :Firefox Aloft
01:25:41.970 : :First Secretary's Threat
01:27:14.980 : :What This Thing Can Do
01:34:48.349 : :Trap Laid - and Foiled
01:37:00.523 : :Low-Flying Close Call
01:38:53.761 : :Last Ditch Strategy
01:40:52.004 : :Second Firefox Aloft
01:44:07.658 : :Going Swimming
01:48:21.662 : :Vladimirov Takes Charge
01:52:14.102 : :Makeshift Runway Takeoff
01:56:38.200 : :Hot Pursuit Over Cold Terrain
01:58:22.595 : :Rapid Descent
01:59:41.174 : :Thinking Correctly



Скачать Огненный.лис.Firefox.(Клинт.Иствуд.Clint.Eastwood).[1982.фантастика.боевик.триллер.BDRip].[720p].[MVO].+.[Sub].Eng.+.[Original].Eng.torrent без регистрации
Золото ЗОЛОТАЯ РАЗДАЧА! СКАЧАННОЕ НЕ ЗАСЧИТЫВАЕТСЯ! Золото
Дата: Зарегистрирован   [ Тип: внутренний ] Как тут cкачать?
MAGNET ссылка
MAGNET ссылка


Скачать .torrent

43 KB

Статус: проверено DHT
Скачан: торрент - 13 раз, раздача полностью - 4 раз
Размер: 8,6 GB
Оценка:  - (Голосов: 0)
Поблагодарили: 1
Поделиться ссылкой на эту раздачу с друзьями:
В контактеFacebookОдноклассникиTwitterLivejournalМой МирLiveinternet
 

 
Показать сообщения:    


Вы не можете начинать темы
Вы не можете отвечать на сообщения
Вы не можете редактировать свои сообщения
Вы не можете удалять свои сообщения
Вы не можете голосовать в опросах
Вы не можете прикреплять файлы к сообщениям
Вы можете скачивать файлы