Loading...
Error

Скачать Небесные ласточки (Леонид Квинихидзе) [1976, комедия, драма, мюзикл, SATRip] торрент без регистрации

Статистика раздачи
Размер:  1,45 GB   |    Скачан:  13 раз
Сидов:  1  [  0 KB/s  ]  
 
 
 
Автор Сообщение

Marsianka

[] 

Информация о фильме
Название: Небесные ласточки
Год выхода: 1976
Жанр: комедия, драма, мюзикл
Режиссёр: Леонид Квинихидзе
В ролях: Андрей Миронов, Ия Нинидзе, Людмила Гурченко, Сергей Захаров (озвучание - Олег Басилашвили), Александр Ширвиндт, Ирина Губанова, Илья Рахлин (озвучание - Владимир Татосов), Нонна Дзнеладзе, Людмила Давыдова, Антонина Аксёнова, Борис Лёскин, Эра Зиганшина, Гелена Ивлиева, Евгений Шпитько, Семён Берлин, Ирина Гойер, Андрей Кузнецов-Вечеслов, Святослав Кузнецов, Анатолий Королькевич, Виктор Лебедев, Анатолий Минц, Тамара Павлова, Владимир Шубарин, Ольга Вардашева, Людмила Невзгляд

О фильме: Очаровательная Дениза де Флориньи (Нинидзе) учится в монастырском пансионе для девочек "Небесные ласточки" под строгим оком монахинь. Обучение рецептам варенья, хорошим манерам и этикету до смерти надоело воспитанницам, а в городке есть театр варьете и расквартирован полк военных. Музыку девочкам преподает господин Селестен (Миронов), и Дениза влюблена в его сочинения для оперетт. Юная красавица обнаруживает замечательный талант, и теперь дело лишь за тем, чтобы вырваться из цепких лап монахинь и добиться постановки на сцене театра. Закручивается любопытнейшая интрига с участием множества персонажей — полковника (Ширвиндт), примадонны театра (Гурченко) и многих других. А какая оперетта может обойтись без молодого красавца в военной форме(Захаров)???



Страна: СССРя
Студия: Ленфильм
Продолжительность: 02:06:22
Перевод: Не требуется (оригинальный)

Файл
Формат: avi
Качество: SATRip (DVB)
Видео: XviD, 640х480, 25fps, 1505kbps
Аудио: MPEG Layer 3, 2ch, 48000Hz, 128kbps


Общее
Полное имя : Nebesnye.Lastochki.1976.O.SATRip.1400.CurHaJI.avi
Формат : AVI
Формат/Информация : Audio Video Interleave
Размер файла : 1,45 Гбайт
Продолжительность : 2 ч. 6 м.
Общий поток : 1643 Кбит/сек
Название фильма : Nebesnye.Lastochki.1976.O.SATRip.1400.CurHaJI
Программа кодирования : VirtualDubMod 1.5.10.3 | www.virtualdub-fr.org || (build 2550/release)
Библиотека кодирования : VirtualDub build 35491/release

Видео
Идентификатор : 0
Формат : MPEG-4 Visual
Профиль формата : Advanced Simple@L5
Параметр BVOP формата : 1
Параметр QPel формата : Нет
Параметр GMC формата : Без точки перехода
Параметр матрицы формата : Выборочная
Идентификатор кодека : XVID
Идентификатор кодека/Подсказка : XviD
Продолжительность : 2 ч. 6 м.
Битрейт : 1505 Кбит/сек
Ширина : 640 пикселей
Высота : 480 пикселей
Соотношение сторон : 4:3
Частота кадров : 25,000 кадров/сек
Цветовое пространство : YUV
Субдискретизация насыщенности : 4:2:0
Битовая глубина : 8 бит
Тип развёртки : Прогрессивная
Метод сжатия : С потерями
Бит/(Пиксели*Кадры) : 0.196
Размер потока : 1,33 Гбайт (92%)
Библиотека кодирования : XviD 73

Аудио
Идентификатор : 1
Формат : MPEG Audio
Версия формата : Version 1
Профиль формата : Layer 3
Идентификатор кодека : 55
Идентификатор кодека/Подсказка : MP3
Продолжительность : 2 ч. 6 м.
Вид битрейта : Постоянный
Битрейт : 128 Кбит/сек
Каналы : 2 канала
Частота : 48,0 КГц
Метод сжатия : С потерями
Размер потока : 116 Мбайт (8%)
Выравнивание : Соединение по промежуткам
Продолжительность промежутка : 40 мс. (1,00 видеокадр)
Время предзагрузки промежутка : 504 мс.
Библиотека кодирования : LAME3.99r
Настройки программы : -m s -V 4 -q 2 -lowpass 17 -b 128
Релиз от:



Скачать Небесные.ласточки.(Леонид.Квинихидзе).[1976.комедия.драма.мюзикл.SATRip].torrent без регистрации
Золото ЗОЛОТАЯ РАЗДАЧА! СКАЧАННОЕ НЕ ЗАСЧИТЫВАЕТСЯ! Золото
Дата: Зарегистрирован   [ Тип: внутренний ] Как тут cкачать?
MAGNET ссылка
MAGNET ссылка


Скачать .torrent

16 KB

Статус: проверено DHT
Скачан: торрент - 13 раз, раздача полностью - 1 раз
Размер: 1,45 GB
Оценка:  - (Голосов: 0)
Поблагодарили: 0
Поделиться ссылкой на эту раздачу с друзьями:
В контактеFacebookОдноклассникиTwitterLivejournalМой МирLiveinternet
 

 
Показать сообщения:    


Вы не можете начинать темы
Вы не можете отвечать на сообщения
Вы не можете редактировать свои сообщения
Вы не можете удалять свои сообщения
Вы не можете голосовать в опросах
Вы не можете прикреплять файлы к сообщениям
Вы можете скачивать файлы