Loading...
Error

Скачать Спасите наши души (Татьяна Пименова) [1987, драма, SATRip-AVC] торрент без регистрации

Статистика раздачи
Размер:  1,77 GB   |    Скачан:  11 раз
Сидов:  1  [  0 KB/s  ]  
 
 
 
Автор Сообщение

Marsianka

[] 

Спасите наши души


Страна: СССР
Жанр: драма
Год выпуска: 1987
Продолжительность: 01:08:30
Перевод: Не требуется
Режиссер: Татьяна Пименова
В ролях: Юрий Григорьев (II), Юрий Назаров, Олег Ворошев, Женя Пивоваров, Роман Никитин, Сережа Костин, Галина Булкина, Марина (Мария) Гаврилко,
Бронислава Захарова, Алексей Золотницкий, Олеся Иванова, Татьяна Камнева, Игорь Кашинцев, Валентина Клягина, Вероника (Ника) Косенкова,
Станислав Коренев, Виталий Максимов, Геннадий Петров, Любовь Соколова, Екатерина Стриженова, Ян Янакиев, В. Ярош, Антон Амзин, Сережа Батуев,
Оля Зимина, Женя Маслихин, Вадим Масленников, Наташа Мокроусова, Марина Суязова, Вадим Ягодин

Описание: Тележурналист, бывший детдомовец, собирает материал о неблагополучных детях, вникает в их проблемы и пытается им помочь.



Кодек: х264
Качество: SATRip-AVC
Видео: MPEG-4 AVC, 700х416@746х416, 25 fps, 3500 Кбит/с
Аудио: АС3, 2h, 192 Кбит/с

x264 [info]: frame I:493 Avg QP:17.35 size: 60189
x264 [info]: frame P:25738 Avg QP:19.73 size: 35067
x264 [info]: frame B:76541 Avg QP:21.48 size: 11321

Общее
Уникальный идентификатор : 190709886432195721244297520176222962839 (0x8F79635A53F5FF8EB400A79E50380497)
Полное имя : E:Мои рипыСпасите наши души 1987_SATRip-AVC_KORSAR.mkv
Формат : Matroska
Версия формата : Version 2
Размер файла : 1,77 Гбайт
Продолжительность : 1 ч. 8 м.
Общий поток : 3694 Кбит/сек
Дата кодирования : UTC 2018-03-07 19:08:53
Программа кодирования : mkvmerge v5.8.0 ('No Sleep / Pillow') built on Sep 2 2012 15:37:04
Библиотека кодирования : libebml v1.2.3 + libmatroska v1.3.0

Видео
Идентификатор : 1
Формат : AVC
Формат/Информация : Advanced Video Codec
Профиль формата : High@L4.1
Настройки формата : CABAC / 15 Ref Frames
Параметр CABAC формата : Да
Параметр RefFrames формата : 15 кадров
Идентификатор кодека : V_MPEG4/ISO/AVC
Продолжительность : 1 ч. 8 м.
Битрейт : 3500 Кбит/сек
Ширина : 700 пикселей
Высота : 416 пикселей
Соотношение сторон : 16:9
Соотношение сторон в оригинале : 16:9
Режим частоты кадров : Постоянный
Частота кадров : 25,000 кадров/сек
Цветовое пространство : YUV
Субдискретизация насыщенности : 4:2:0
Битовая глубина : 8 бит
Тип развёртки : Прогрессивная
Бит/(Пиксели*Кадры) : 0.481
Размер потока : 1,64 Гбайт (93%)
Библиотека кодирования : x264 core 152 r2851kMod ba24899
Настройки программы : cabac=1 / ref=15 / deblock=1:1:-1 / analyse=0x3:0x133 / me=umh / subme=11 / psy=1 / fade_compensate=0.00 / psy_rd=0.70:0.03 / mixed_ref=1 / me_range=48 / chroma_me=1 / trellis=2 / 8x8dct=1 / cqm=0 / deadzone=21,11 / fast_pskip=0 / chroma_qp_offset=-3 / threads=12 / lookahead_threads=3 / sliced_threads=0 / nr=0 / decimate=0 / interlaced=0 / bluray_compat=0 / constrained_intra=0 / bframes=10 / b_pyramid=2 / b_adapt=2 / b_bias=0 / direct=3 / weightb=1 / open_gop=0 / weightp=2 / keyint=250 / keyint_min=25 / scenecut=40 / intra_refresh=0 / rc_lookahead=40 / rc=2pass / mbtree=0 / bitrate=3500 / ratetol=1.0 / qcomp=0.60 / qpmin=0 / qpmax=39 / qpstep=4 / cplxblur=20.0 / qblur=0.5 / vbv_maxrate=50000 / vbv_bufsize=62500 / nal_hrd=none / filler=0 / ip_ratio=1.25 / pb_ratio=1.30 / aq=1:1.00
Язык : English
Default : Да
Forced : Нет
Цветовой диапазон : Limited
Основные цвета : BT.601 PAL
Характеристики трансфера : BT.470 System B, BT.470 System G
Коэффициенты матрицы : BT.470 System B, BT.470 System G

Аудио
Идентификатор : 2
Формат : AC-3
Формат/Информация : Audio Coding 3
Параметр Endianness формата : Big
Идентификатор кодека : A_AC3
Продолжительность : 1 ч. 8 м.
Вид битрейта : Постоянный
Битрейт : 192 Кбит/сек
Каналы : 2 канала
Расположение каналов : Front: L R
Частота : 48,0 КГц
Частота кадров : 31,250 кадров/сек (1536 SPF)
Битовая глубина : 16 бит
Метод сжатия : С потерями
Задержка видео : 2 мс.
Размер потока : 94,1 Мбайт (5%)
Язык : Russian
Default : Да
Forced : Нет



Скачать Спасите.наши.души.(Татьяна.Пименова).[1987.драма.SATRip-AVC].torrent без регистрации
Золото ЗОЛОТАЯ РАЗДАЧА! СКАЧАННОЕ НЕ ЗАСЧИТЫВАЕТСЯ! Золото
Дата: Зарегистрирован   [ Тип: внутренний ] Как тут cкачать?
MAGNET ссылка
MAGNET ссылка


Скачать .torrent

19 KB

Статус: проверено DHT
Скачан: торрент - 11 раз, раздача полностью - 4 раз
Размер: 1,77 GB
Оценка:  - (Голосов: 0)
Поблагодарили: 0
Поделиться ссылкой на эту раздачу с друзьями:
В контактеFacebookОдноклассникиTwitterLivejournalМой МирLiveinternet
 

 
Показать сообщения:    


Вы не можете начинать темы
Вы не можете отвечать на сообщения
Вы не можете редактировать свои сообщения
Вы не можете удалять свои сообщения
Вы не можете голосовать в опросах
Вы не можете прикреплять файлы к сообщениям
Вы можете скачивать файлы