Loading...
Error

Скачать Чтобы выжить (Всеволод Плоткин) [1992, боевик, BDRemux] [1080р] [USA Transfer] торрент без регистрации

Статистика раздачи
Размер:  17,48 GB   |    Скачан:  16 раз
Сидов:  1  [  0 KB/s  ]  
 
 
 
Автор Сообщение

Marsianka

[] 

Информация о фильме
Название: Чтобы выжить
Год выхода: 1992
Жанр: боевик
Режиссер: Всеволод Плоткин
В ролях: Владимир Меньшов, Александр Розенбаум, Дмитрий Волков, Сергей Векслер, Мурад Алиев, Арсен Амаспюрянц, Анвар Азимов, Михаил Богдасаров, Яков Голяков, Юрий Горобец

Описание: Эмиссар бывшей «партийной мафии» по кличке «Джафар» готовит и осуществляет ряд провокаций и террористических актов на окраинах страны для создания предпосылок государственного переворота. В ходе налета на один из армейских оружейных складов ранен проводник.

Бандитам срочно нужно переправить через афганскую границу караван с наркотиками. В качестве проводника Джафар пытается использовать бывшего офицера — «афганца» Олега, для чего бандиты берут в заложники его сына. Олег и его армейский друг Николай, используя весь свой опыт войны в горах, вступают в неравную смертельную борьбу с бандой…



Страна: Россия
Продолжительность: 01:50:54

Файл
Качество: BDRemux 1080р
Видео: MPEG-4 AVC / NTSC / 1920x1080 / 22465 kbps / 23,976 fps / High@L4.1
Звук: AC3 / 1.0 / 48 kHz / 96 kbps / DN -4dB
Общее
Уникальный идентификатор : 307173082212683273294980847948869595634 (0xE717623B19E8E12DD2F639BF1382F1F2)
Полное имя : Чтобы.выжить.1992.BDRemux.1080p.mkv
Формат : Matroska
Версия формата : Version 4 / Version 2
Размер файла : 17,5 Гбайт
Продолжительность : 1 ч. 50 м.
Режим общего битрейта : Переменный
Общий поток : 22,6 Мбит/сек
Дата кодирования : UTC 2018-03-12 20:28:31
Программа кодирования : mkvmerge v20.0.0 ('I Am The Sun') 32-bit
Библиотека кодирования : libebml v1.3.5 + libmatroska v1.4.8
DURATION : 01:50:54.912000000
NUMBER_OF_FRAMES : 207966
NUMBER_OF_BYTES : 79858944
_STATISTICS_WRITING_APP : mkvmerge v20.0.0 ('I Am The Sun') 32-bit
_STATISTICS_WRITING_DATE_UTC : 2018-03-12 20:28:31
_STATISTICS_TAGS : BPS DURATION NUMBER_OF_FRAMES NUMBER_OF_BYTES

Видео
Идентификатор : 1
Формат : AVC
Формат/Информация : Advanced Video Codec
Профиль формата : High@L4.1
Параметр CABAC формата : Да
Параметр ReFrames формата : 3 кадра
Идентификатор кодека : V_MPEG4/ISO/AVC
Продолжительность : 1 ч. 50 м.
Вид битрейта : Переменный
Битрейт : 22,5 Мбит/сек
Максимальный битрейт : 40,0 Мбит/сек
Ширина : 1920 пикселей
Высота : 1080 пикселей
Соотношение сторон : 16:9
Режим частоты кадров : Постоянный
Частота кадров : 23,976 кадра/сек
Стандарт вещания : NTSC
Цветовое пространство : YUV
Субдискретизация насыщенности : 4:2:0
Битовая глубина : 8 бит
Тип развёртки : Прогрессивная
Бит/(Пиксели*Кадры) : 0.453
Размер потока : 17,1 Гбайт (98%)
Библиотека кодирования : x264pro - Adobe CS Exporter Plug-in
Настройки программы : cabac=1 / ref=4 / deblock=1:-1:-1 / analyse=0x3:0x133 / me=umh / subme=10 / psy=1 / psy_rd=1.00:0.15 / mixed_ref=1 / me_range=24 / chroma_me=1 / trellis=2 / 8x8dct=1 / cqm=0 / deadzone=21,11 / fast_pskip=1 / chroma_qp_offset=-3 / threads=12 / lookahead_threads=2 / sliced_threads=0 / slices=4 / nr=0 / decimate=1 / interlaced=0 / bluray_compat=1 / constrained_intra=0 / bframes=3 / b_pyramid=1 / b_adapt=2 / b_bias=0 / direct=3 / weightb=1 / open_gop=0 / weightp=1 / keyint=24 / keyint_min=1 / scenecut=40 / intra_refresh=0 / rc_lookahead=24 / rc=2pass / mbtree=1 / bitrate=22500 / ratetol=1.0 / qcomp=0.60 / qpmin=0 / qpmax=69 / qpstep=4 / cplxblur=20.0 / qblur=0.5 / vbv_maxrate=40000 / vbv_bufsize=30000 / nal_hrd=vbr / ip_ratio=1.40 / aq=1:1.00
Язык : English
Default : Да
Forced : Нет
Основные цвета : BT.709
Характеристики трансфера : BT.709
Коэффициенты матрицы : BT.709

Аудио
Идентификатор : 2
Формат : AC-3
Формат/Информация : Audio Coding 3
Расширение режима : CM (complete main)
Параметр Endianness формата : Big
Идентификатор кодека : A_AC3
Продолжительность : 1 ч. 50 м.
Вид битрейта : Постоянный
Битрейт : 96,0 Кбит/сек
Каналы : 1 канал
Расположение каналов : Front: C
Частота : 48,0 КГц
Битовая глубина : 16 бит
Метод сжатия : С потерями
Размер потока : 76,2 Мбайт (0%)
Язык : Russian
Default : Да
Forced : Нет

Меню
00:00:00.000 : :Chapter 01
00:20:10.209 : :Chapter 02
00:39:55.393 : :Chapter 03
01:00:07.604 : :Chapter 04
01:21:32.888 : :Chapter 05
01:38:18.893 : :Chapter 06
01:50:54.939 : :Chapter 07



Скачать Чтобы.выжить.(Всеволод.Плоткин).[1992.боевик.BDRemux].[1080р].[USA.Transfer].torrent без регистрации
Золото ЗОЛОТАЯ РАЗДАЧА! СКАЧАННОЕ НЕ ЗАСЧИТЫВАЕТСЯ! Золото
Дата: Зарегистрирован   [ Тип: внутренний ] Как тут cкачать?
MAGNET ссылка
MAGNET ссылка


Скачать .torrent

45 KB

Статус: проверено DHT
Скачан: торрент - 16 раз, раздача полностью - 2 раз
Размер: 17,48 GB
Оценка:  - (Голосов: 0)
Поблагодарили: 0
Поделиться ссылкой на эту раздачу с друзьями:
В контактеFacebookОдноклассникиTwitterLivejournalМой МирLiveinternet
 

 
Показать сообщения:    


Вы не можете начинать темы
Вы не можете отвечать на сообщения
Вы не можете редактировать свои сообщения
Вы не можете удалять свои сообщения
Вы не можете голосовать в опросах
Вы не можете прикреплять файлы к сообщениям
Вы можете скачивать файлы