Loading...
Error

Скачать Игра без козырей (Альгимантас Кундялис) [1981, детектив, SATRip-AVC] торрент без регистрации

Статистика раздачи
Размер:  2,55 GB   |    Скачан:  11 раз
Сидов:  3  [  0 KB/s  ]  
 
 
 
Автор Сообщение

Marsianka

[] 

Игра без козырей

Страна: СССР
Жанр: детектив
Год выпуска: 1981
Продолжительность: 01:12:00 + 01:03:43
Перевод: Не требуется
Режиссер: Альгимантас Кундялис
В ролях: Борис Борисов, Юрий Каморный, Вайва Вида Майнелите, Арнис Лицитис, Антанас Габренас, Сигитас Рачкис, Улдис Лиелдидж,
Михаил Евдокимов (II), Витаутас Григолис, Раса Киркилёните, Алдона Йодкайте, Аудроне Мейлутите, Казимирас Виткус,
Владимир Ефремов, Альгирдас Венскунас

Описание: Капитану милиции Григонису поручают расследование убийства сторожа научно-исследовательского института.
Рискуя жизнью, он разоблачает и обезвреживает шайку особо опасных преступников.



Кодек: х264
Качество: SATRip-AVC
Видео: MPEG-4 AVC, 720х570@768х570, 25 fps, 2500 Кбит/с
Аудио: АС3, 2h, 192 Кбит/с

За исходный DVB благодарю Cheef mate

x264 [info]: frame I:561 Avg QP:16.19 size: 67270
x264 [info]: frame P:23300 Avg QP:18.73 size: 29763
x264 [info]: frame B:84138 Avg QP:20.16 size: 7351

Общее
Уникальный идентификатор : 204751636978325739980787249149078949016 (0x9A09BB1B1346A357B268E04540444C98)
Полное имя : E:Мои рипыИгра без козырей 1981_SATRip-AVC_KORSAR.mkv
Формат : Matroska
Версия формата : Version 2
Размер файла : 1,35 Гбайт
Продолжительность : 1 ч. 12 м.
Общий поток : 2693 Кбит/сек
Название фильма : Игра без козырей
Дата кодирования : UTC 2018-01-26 10:51:55
Программа кодирования : mkvmerge v5.8.0 ('No Sleep / Pillow') built on Sep 2 2012 15:37:04
Библиотека кодирования : libebml v1.2.3 + libmatroska v1.3.0

Видео
Идентификатор : 1
Формат : AVC
Формат/Информация : Advanced Video Codec
Профиль формата : High@L4.1
Настройки формата : CABAC / 15 Ref Frames
Параметр CABAC формата : Да
Параметр RefFrames формата : 15 кадров
Идентификатор кодека : V_MPEG4/ISO/AVC
Продолжительность : 1 ч. 12 м.
Битрейт : 2500 Кбит/сек
Ширина : 720 пикселей
Высота : 570 пикселей
Соотношение сторон : 4:3
Режим частоты кадров : Постоянный
Частота кадров : 25,000 кадров/сек
Цветовое пространство : YUV
Субдискретизация насыщенности : 4:2:0
Битовая глубина : 8 бит
Тип развёртки : Прогрессивная
Бит/(Пиксели*Кадры) : 0.244
Размер потока : 1,23 Гбайт (91%)
Библиотека кодирования : x264 core 152 r2851kMod ba24899
Настройки программы : cabac=1 / ref=15 / deblock=1:-2:-1 / analyse=0x3:0x133 / me=umh / subme=11 / psy=1 / fade_compensate=0.00 / psy_rd=1.05:0.10 / mixed_ref=1 / me_range=48 / chroma_me=1 / trellis=2 / 8x8dct=1 / cqm=0 / deadzone=21,11 / fast_pskip=0 / chroma_qp_offset=-3 / threads=12 / lookahead_threads=3 / sliced_threads=0 / nr=0 / decimate=0 / interlaced=0 / bluray_compat=0 / constrained_intra=0 / bframes=10 / b_pyramid=2 / b_adapt=2 / b_bias=0 / direct=3 / weightb=1 / open_gop=0 / weightp=2 / keyint=250 / keyint_min=25 / scenecut=40 / intra_refresh=0 / rc_lookahead=40 / rc=2pass / mbtree=0 / bitrate=2500 / ratetol=1.0 / qcomp=0.60 / qpmin=0 / qpmax=39 / qpstep=4 / cplxblur=20.0 / qblur=0.5 / vbv_maxrate=50000 / vbv_bufsize=62500 / nal_hrd=none / filler=0 / ip_ratio=1.25 / pb_ratio=1.30 / aq=1:0.90
Язык : English
Default : Да
Forced : Нет
Цветовой диапазон : Limited
Основные цвета : BT.601 PAL
Характеристики трансфера : BT.470 System B, BT.470 System G
Коэффициенты матрицы : BT.470 System B, BT.470 System G

Аудио
Идентификатор : 2
Формат : AC-3
Формат/Информация : Audio Coding 3
Параметр Endianness формата : Big
Идентификатор кодека : A_AC3
Продолжительность : 1 ч. 12 м.
Вид битрейта : Постоянный
Битрейт : 192 Кбит/сек
Каналы : 2 канала
Расположение каналов : Front: L R
Частота : 48,0 КГц
Частота кадров : 31,250 кадров/сек (1536 SPF)
Битовая глубина : 16 бит
Метод сжатия : С потерями
Размер потока : 98,9 Мбайт (7%)
Язык : Russian
Default : Да
Forced : Нет





Скачать Игра.без.козырей.(Альгимантас.Кундялис).[1981.детектив.SATRip-AVC].torrent без регистрации
Золото ЗОЛОТАЯ РАЗДАЧА! СКАЧАННОЕ НЕ ЗАСЧИТЫВАЕТСЯ! Золото
Дата: Зарегистрирован   [ Тип: внешний ] Как тут cкачать?
MAGNET ссылка
MAGNET ссылка


Скачать .torrent

14 KB

Статус: проверено DHT
Скачан: торрент - 11 раз, раздача полностью - 13 раз
Размер: 2,55 GB
Оценка:  - (Голосов: 0)
Поблагодарили: 1
Поделиться ссылкой на эту раздачу с друзьями:
В контактеFacebookОдноклассникиTwitterLivejournalМой МирLiveinternet
 

 
Показать сообщения:    


Вы не можете начинать темы
Вы не можете отвечать на сообщения
Вы не можете редактировать свои сообщения
Вы не можете удалять свои сообщения
Вы не можете голосовать в опросах
Вы не можете прикреплять файлы к сообщениям
Вы можете скачивать файлы