Loading...
Error

Скачать Аннигиляция / Annihilation (Алекс Гарленд / Alex Garland) [2018, Ужасы, фантастика, фэнтези, триллер, драма, детектив, приключения, WEBRip] [1080p] [Sub Rus] (*FOCS*) торрент без регистрации

Статистика раздачи
Размер:  3,25 GB   |    Скачан:  73 раза
Сидов:  1  [  0 KB/s  ]  
 
 
 
Автор Сообщение

leon030982

[] 

Аннигиляция / Annihilation




Год выхода : 2018
Жанр : ужасы, фантастика, фэнтези, триллер, драма, детектив, приключения,
Страна : Великобритания, США
Продолжительность : 01:55:10
Перевод : Русские субтитры *FOCS*

Режиссер : Алекс Гарленд

В главных ролях: Натали Портман, Бенедикт Вонг, Соноя Мидзуно, Дэвид Гяси, Оскар Айзек, Джон Шваб, Дженнифер Джейсон Ли, Джина Родригез, Тува Новотны, Тесса Томпсон

Описание: Никто не знает, откуда взялась Зона Икс — смертельно опасная территория, кишащая аномальными явлениями. Там не бегают чудовища, оттуда не приносят трофеев, и охотники за наживой там не промышляют. Тайная правительственная организация отправляет в Зону одну исследовательскую экспедицию за другой, но чаще всего те не возвращаются — или возвращаются, но неуловимо и страшно изменившись. Сможет ли новая, двенадцатая экспедиция в Зону добиться того, что не удалось предшественникам и раскрыть тайны этого проклятого места? Оставив позади имена и прежние жизни, четыре женщины — психолог, биолог, топограф и антрополог — отправляются навстречу чуждой нечеловеческой тайне.



Файл
Качество : WEB-DL 1080p
Формат видео : MKV
Видео : AVC, 1920x1080, 23.976 fps, 3650 Kbps
Звук : AC3, 48.0 KHz, 6 ch, ~384 Kbps
General
Unique ID : 205539309634526510138183828814101000142 (0x9AA16E5DB56E0FBDB08AA51378A0AFCE)
Complete name : E:\Annihilation.2018.1080p.WEB-DL.Sub.Rus.FOCS.mkv
Format : Matroska
Format version : Version 4 / Version 2
File size : 3.25 GiB
Duration : 1 h 55 min
Overall bit rate mode : Variable
Overall bit rate : 4 023 kb/s
Encoded date : UTC 2018-03-13 17:31:56
Writing application : mkvmerge v17.0.0 ('Be Ur Friend') 64-bit
Writing library : libebml v1.3.5 + libmatroska v1.4.8

Video
ID : 1
Format : AVC
Format/Info : Advanced Video Codec
Format profile : Main@L4
Format settings : CABAC / 3 Ref Frames
Format settings, CABAC : Yes
Format settings, RefFrames : 3 frames
Codec ID : V_MPEG4/ISO/AVC
Duration : 1 h 55 min
Bit rate mode : Variable
Bit rate : 3 650 kb/s
Maximum bit rate : 5 475 kb/s
Width : 1 920 pixels
Height : 1 080 pixels
Display aspect ratio : 16:9
Frame rate mode : Constant
Frame rate : 23.976 (24000/1001) FPS
Color space : YUV
Chroma subsampling : 4:2:0
Bit depth : 8 bits
Scan type : Progressive
Bits/(Pixel*Frame) : 0.073
Stream size : 2.87 GiB (88%)
Writing library : x264 core 148 r2715 7e75228
Encoding settings : cabac=1 / ref=3 / deblock=1:0:0 / analyse=0x1:0x111 / me=umh / subme=10 / psy=1 / psy_rd=1.00:0.00 / mixed_ref=1 / me_range=24 / chroma_me=1 / trellis=2 / 8x8dct=0 / cqm=0 / deadzone=21,11 / fast_pskip=1 / chroma_qp_offset=-2 / threads=8 / lookahead_threads=1 / sliced_threads=0 / nr=0 / decimate=1 / interlaced=0 / bluray_compat=0 / stitchable=1 / constrained_intra=0 / bframes=2 / b_pyramid=0 / b_adapt=2 / b_bias=0 / direct=3 / weightb=1 / open_gop=0 / weightp=2 / keyint=48 / keyint_min=25 / scenecut=0 / intra_refresh=0 / rc_lookahead=48 / rc=2pass / mbtree=1 / bitrate=3650 / ratetol=1.0 / qcomp=0.50 / qpmin=6 / qpmax=51 / qpstep=4 / cplxblur=20.0 / qblur=0.5 / vbv_maxrate=5475 / vbv_bufsize=7300 / nal_hrd=vbr / filler=0 / ip_ratio=1.40 / aq=1:1.00
Default : Yes
Forced : No

Audio
ID : 3
Format : AC-3
Format/Info : Audio Coding 3
Format settings, Endianness : Big
Codec ID : A_AC3
Duration : 1 h 55 min
Bit rate mode : Constant
Bit rate : 384 kb/s
Channel(s) : 6 channels
Channel positions : Front: L C R, Side: L R, LFE
Sampling rate : 48.0 kHz
Frame rate : 31.250 FPS (1536 SPF)
Bit depth : 16 bits
Compression mode : Lossy
Stream size : 317 MiB (10%)
Title : English
Language : English
Service kind : Complete Main
Default : Yes
Forced : No

Text #1
ID : 2
Format : UTF-8
Codec ID : S_TEXT/UTF8
Codec ID/Info : UTF-8 Plain Text
Title : FOCS
Language : Russian
Default : Yes
Forced : No

Text #2
ID : 4
Format : UTF-8
Codec ID : S_TEXT/UTF8
Codec ID/Info : UTF-8 Plain Text
Title : SDH
Language : English
Default : No
Forced : No



Скачать Аннигиляция.Annihilation.(Алекс.Гарленд.Alex.Garland).[2018.Ужасы.фантастика.фэнтези.триллер.драма.детектив.приключения.WEBRip].[1080p].[Sub.Rus].(*FOCS*).torrent без регистрации
Золото ЗОЛОТАЯ РАЗДАЧА! СКАЧАННОЕ НЕ ЗАСЧИТЫВАЕТСЯ! Золото
Дата: Зарегистрирован   [ Тип: внутренний ] Как тут cкачать?
MAGNET ссылка
MAGNET ссылка


Скачать .torrent

17 KB

Статус: проверено DHT
Скачан: торрент - 73 раз, раздача полностью - 91 раз
Размер: 3,25 GB
Оценка:  - (Голосов: 0)
Поблагодарили: 3
Поделиться ссылкой на эту раздачу с друзьями:
В контактеFacebookОдноклассникиTwitterLivejournalМой МирLiveinternet
 

 
Показать сообщения:    


Вы не можете начинать темы
Вы не можете отвечать на сообщения
Вы не можете редактировать свои сообщения
Вы не можете удалять свои сообщения
Вы не можете голосовать в опросах
Вы не можете прикреплять файлы к сообщениям
Вы можете скачивать файлы