Loading...
Error

Скачать Жмурки (Алексей Балабанов) [2005, триллер, комедия, криминал, BDRip] [720р] [Sub Eng] торрент без регистрации

Статистика раздачи
Размер:  8,78 GB   |    Скачан:  8 раз
Сидов:  1  [  0 KB/s  ]  
 
 
 
Автор Сообщение

Marsianka

[] 

Жмурки


Год выхода: 2005
Жанр: триллер, комедия, криминал
Страна: Россия
Продолжительность: 01:49:42
Перевод: Не требуется
Режиссер: Алексей Балабанов
В ролях: Алексей Панин, Дмитрий Дюжев, Никита Михалков, Сергей Маковецкий, Виктор Сухоруков, Алексей Серебряков, Рената Литвинова,
Гарик Сукачев, Григорий Сиятвинда, Анатолий Журавлев, Дмитрий Певцов

О фильме: Жмурки — старинная русская игра: водящий, с завязанными глазами, ловит остальных играющих.
К середине 1990-х правила игры изменились: выигрывает тот, кто останется в живых, сделав жмуриками остальных «играющих».
Нижний Новгород. Два мелких бандита Серега и Саймон работали на крупного бандюгана Сергея Михайловича.
Только вот очередное его поручение парни завалили: он велел привезти химика, колдовавшего над созданием новой порции белого порошка, а Серега и Саймон устроили в лаборатории настоящую бойню, оставив там трупы — химика и парочки его охранников.
Сергей Михайлович сильно рассердился, но ограничился устным внушением, после чего дал парням другое поручение: съездить в адвокатскую контору и обменять чемоданчик с деньгами на чемоданчик с героином.
Но и тут Сереге и Саймону не повезло: обмен-то состоялся, только на выходе из конторы их встретили Корон,
Бала и Баклажан — три бандита, которых нанял старший лейтенант милиции Степан, «оборотень в погонах», мечтающий кинуть Сергея Михайловича на большие бабки...



Кодек: х264
Качество: BDRip 720р
Видео: MPEG-4 AVC, 1280х720, 23,976 fps, 11000 Кбит/с
Аудио: АС3, 6h, 448 Кбит/с
Субтитры: Английские
Главы: Есть

x264 [info]: frame I:934 Avg QP:17.86 size:218059
x264 [info]: frame P:29184 Avg QP:19.91 size:109550
x264 [info]: frame B:127718 Avg QP:21.74 size: 44220

Общее
Уникальный идентификатор : 229596408627142480446495489316876069103 (0xACBAA8EBEBEEF6FDB60C9FD1249E28EF)
Полное имя : E:Мои рипыЖмурки 2005_BDRip 720p_KORSAR.mkv
Формат : Matroska
Версия формата : Version 2
Размер файла : 8,78 Гбайт
Продолжительность : 1 ч. 51 м.
Общий поток : 11,3 Мбит/сек
Название фильма : Жмурки 2005_KORSAR
Дата кодирования : UTC 2018-01-28 10:40:33
Программа кодирования : mkvmerge v5.8.0 ('No Sleep / Pillow') built on Sep 2 2012 15:37:04
Библиотека кодирования : libebml v1.2.3 + libmatroska v1.3.0

Видео
Идентификатор : 1
Формат : AVC
Формат/Информация : Advanced Video Codec
Профиль формата : High@L4.1
Настройки формата : CABAC / 9 Ref Frames
Параметр CABAC формата : Да
Параметр RefFrames формата : 9 кадров
Идентификатор кодека : V_MPEG4/ISO/AVC
Продолжительность : 1 ч. 51 м.
Битрейт : 11,0 Мбит/сек
Ширина : 1280 пикселей
Высота : 720 пикселей
Соотношение сторон : 16:9
Режим частоты кадров : Постоянный
Частота кадров : 23,976 (24000/1001) кадра/сек
Цветовое пространство : YUV
Субдискретизация насыщенности : 4:2:0
Битовая глубина : 8 бит
Тип развёртки : Прогрессивная
Бит/(Пиксели*Кадры) : 0.498
Размер потока : 8,25 Гбайт (94%)
Библиотека кодирования : x264 core 152 r2851kMod ba24899
Настройки программы : cabac=1 / ref=9 / deblock=1:-2:-2 / analyse=0x3:0x113 / me=umh / subme=11 / psy=1 / fade_compensate=0.00 / psy_rd=1.05:0.09 / mixed_ref=1 / me_range=48 / chroma_me=1 / trellis=2 / 8x8dct=1 / cqm=0 / deadzone=21,11 / fast_pskip=0 / chroma_qp_offset=-3 / threads=12 / lookahead_threads=3 / sliced_threads=0 / nr=0 / decimate=0 / interlaced=0 / bluray_compat=0 / constrained_intra=0 / bframes=16 / b_pyramid=2 / b_adapt=2 / b_bias=0 / direct=3 / weightb=1 / open_gop=0 / weightp=2 / keyint=240 / keyint_min=23 / scenecut=40 / intra_refresh=0 / rc_lookahead=40 / rc=2pass / mbtree=0 / bitrate=11000 / ratetol=1.0 / qcomp=0.60 / qpmin=0 / qpmax=39 / qpstep=4 / cplxblur=20.0 / qblur=0.5 / vbv_maxrate=50000 / vbv_bufsize=62500 / nal_hrd=none / filler=0 / ip_ratio=1.25 / pb_ratio=1.30 / aq=1:1.00
Язык : English
Default : Да
Forced : Нет
Цветовой диапазон : Limited
Основные цвета : BT.709
Характеристики трансфера : BT.709
Коэффициенты матрицы : BT.709

Аудио
Идентификатор : 2
Формат : AC-3
Формат/Информация : Audio Coding 3
Параметр Endianness формата : Big
Идентификатор кодека : A_AC3
Продолжительность : 1 ч. 51 м.
Вид битрейта : Постоянный
Битрейт : 448 Кбит/сек
Каналы : 6 каналов
Расположение каналов : Front: L C R, Side: L R, LFE
Частота : 48,0 КГц
Частота кадров : 31,250 кадров/сек (1536 SPF)
Битовая глубина : 16 бит
Метод сжатия : С потерями
Размер потока : 357 Мбайт (4%)
Язык : Russian
Default : Да
Forced : Нет

Текст
Идентификатор : 3
Формат : UTF-8
Идентификатор кодека : S_TEXT/UTF8
Идентификатор кодека/Информация : UTF-8 Plain Text
Язык : English
Default : Нет
Forced : Нет

Меню
00:00:00.000 : en:00:00:00.000
00:09:53.593 : en:00:09:53.593
00:21:09.268 : en:00:21:09.268
00:31:51.910 : en:00:31:51.910
00:39:18.356 : en:00:39:18.356
00:49:49.987 : en:00:49:49.987
01:00:00.597 : en:01:00:00.597
01:09:01.137 : en:01:09:01.137
01:20:01.797 : en:01:20:01.797
01:30:21.416 : en:01:30:21.416
01:39:04.939 : en:01:39:04.939
01:44:45.279 : en:01:44:45.279



Скачать Жмурки.(Алексей.Балабанов).[2005.триллер.комедия.криминал.BDRip].[720р].[Sub.Eng].torrent без регистрации
Золото ЗОЛОТАЯ РАЗДАЧА! СКАЧАННОЕ НЕ ЗАСЧИТЫВАЕТСЯ! Золото
Дата: Зарегистрирован   [ Тип: внутренний ] Как тут cкачать?
MAGNET ссылка
MAGNET ссылка


Скачать .torrent

45 KB

Статус: проверено DHT
Скачан: торрент - 8 раз, раздача полностью - 0 раз
Размер: 8,78 GB
Оценка:  - (Голосов: 0)
Поблагодарили: 0
Поделиться ссылкой на эту раздачу с друзьями:
В контактеFacebookОдноклассникиTwitterLivejournalМой МирLiveinternet
 

 
Показать сообщения:    


Вы не можете начинать темы
Вы не можете отвечать на сообщения
Вы не можете редактировать свои сообщения
Вы не можете удалять свои сообщения
Вы не можете голосовать в опросах
Вы не можете прикреплять файлы к сообщениям
Вы можете скачивать файлы