Loading...
Error

Скачать На таёжных ветрах (Анатолий Ниточкин) [1979, экранизация, SATRip-AVC] торрент без регистрации

Статистика раздачи
Размер:  3,3 GB   |    Скачан:  15 раз
Сидов:  8  [  0 KB/s  ]  
 
 
 
Автор Сообщение

Marsianka

[] 

На таежных ветрах

Выпущено: СССР
Жанр: экранизация
Год выпуска: 1979
Продолжительность: 01:13:59 + 01:13:52
Перевод: Не требуется
Режиссер: Анатолий Ниточкин
В ролях: Евгений Шутов, Владимир Борисов, Вячеслав Говалло, Юрий Назаров, Ирина Бразговка, Михаил Кокшенов,
Ирина Калиновская, Георгий Мартиросян, Александр Вдовин, Татьяна Божок, Валерий Зотов, Майя Булгакова, Иван Рыжов,
Любовь Мышева, Клементина Ростовцева

О Фильме: По мотивам романа К.Лагунова "Одержимые"
Фильм посвящен геологам-нефтеразведчикам,
осваивающим северные районы страны.



Кодек: х264
Качество: SATRip-AVC
Видео: MPEG-4 AVC, 704x572@750x572, 25 fps, 3000 Кбит/с
Аудио: AC3, 2 ch, 192 Кбит/с

За исходный DVB спасибо Cheef mate

x264 [info]: frame I:609 Avg QP:17.45 size: 77235
x264 [info]: frame P:27270 Avg QP:20.26 size: 34786
x264 [info]: frame B:83105 Avg QP:21.82 size: 8050

Общее
Уникальный идентификатор : 194167716833230296176404039152729542952 (0x9213578DDA264261B701B443098B5128)
Полное имя : I:сссрНа таежных ветрах 1979_SATRip-AVC_KORSARНа таежных ветрах 1 серия 1979_SATRip-AVC_KORSAR.mkv
Формат : Matroska
Версия формата : Version 2
Размер файла : 1,65 Гбайт
Продолжительность : 1 ч. 13 м.
Общий поток : 3194 Кбит/сек
Дата кодирования : UTC 2018-02-16 12:27:17
Программа кодирования : mkvmerge v5.8.0 ('No Sleep / Pillow') built on Sep 2 2012 15:37:04
Библиотека кодирования : libebml v1.2.3 + libmatroska v1.3.0

Видео
Идентификатор : 1
Формат : AVC
Формат/Информация : Advanced Video Codec
Профиль формата : High@L4.1
Настройки формата : CABAC / 15 Ref Frames
Параметр CABAC формата : Да
Параметр RefFrames формата : 15 кадров
Идентификатор кодека : V_MPEG4/ISO/AVC
Продолжительность : 1 ч. 13 м.
Битрейт : 3000 Кбит/сек
Ширина : 704 пикселя
Высота : 572 пикселя
Соотношение сторон : 4:3
Режим частоты кадров : Постоянный
Частота кадров : 25,000 кадров/сек
Цветовое пространство : YUV
Субдискретизация насыщенности : 4:2:0
Битовая глубина : 8 бит
Тип развёртки : Прогрессивная
Бит/(Пиксели*Кадры) : 0.298
Размер потока : 1,52 Гбайт (92%)
Библиотека кодирования : x264 core 152 r2851kMod ba24899
Настройки программы : cabac=1 / ref=15 / deblock=1:-2:-1 / analyse=0x3:0x133 / me=umh / subme=11 / psy=1 / fade_compensate=0.00 / psy_rd=1.05:0.10 / mixed_ref=1 / me_range=48 / chroma_me=1 / trellis=2 / 8x8dct=1 / cqm=0 / deadzone=21,11 / fast_pskip=0 / chroma_qp_offset=-3 / threads=12 / lookahead_threads=2 / sliced_threads=0 / nr=0 / decimate=0 / interlaced=0 / bluray_compat=0 / constrained_intra=0 / bframes=8 / b_pyramid=2 / b_adapt=2 / b_bias=0 / direct=3 / weightb=1 / open_gop=0 / weightp=2 / keyint=250 / keyint_min=25 / scenecut=40 / intra_refresh=0 / rc_lookahead=40 / rc=2pass / mbtree=0 / bitrate=3000 / ratetol=1.0 / qcomp=0.60 / qpmin=0 / qpmax=39 / qpstep=4 / cplxblur=20.0 / qblur=0.5 / vbv_maxrate=50000 / vbv_bufsize=62500 / nal_hrd=none / filler=0 / ip_ratio=1.25 / pb_ratio=1.30 / aq=1:1.00
Язык : Russian
Default : Да
Forced : Нет
Цветовой диапазон : Limited
Основные цвета : BT.601 PAL
Характеристики трансфера : BT.470 System B, BT.470 System G
Коэффициенты матрицы : BT.470 System B, BT.470 System G

Аудио
Идентификатор : 2
Формат : AC-3
Формат/Информация : Audio Coding 3
Параметр Endianness формата : Big
Идентификатор кодека : A_AC3
Продолжительность : 1 ч. 13 м.
Вид битрейта : Постоянный
Битрейт : 192 Кбит/сек
Каналы : 2 канала
Расположение каналов : Front: L R
Частота : 48,0 КГц
Частота кадров : 31,250 кадров/сек (1536 SPF)
Битовая глубина : 16 бит
Метод сжатия : С потерями
Задержка видео : 23 мс.
Размер потока : 102 Мбайт (6%)
Язык : Russian
Default : Да
Forced : Нет



Скачать На.таёжных.ветрах.(Анатолий.Ниточкин).[1979.экранизация.SATRip-AVC].torrent без регистрации
Золото ЗОЛОТАЯ РАЗДАЧА! СКАЧАННОЕ НЕ ЗАСЧИТЫВАЕТСЯ! Золото
Дата: Зарегистрирован   [ Тип: внешний ] Как тут cкачать?
MAGNET ссылка
MAGNET ссылка


Скачать .torrent

18 KB

Статус: проверено DHT
Скачан: торрент - 15 раз, раздача полностью - 2 раз
Размер: 3,3 GB
Оценка:  - (Голосов: 0)
Поблагодарили: 0
Поделиться ссылкой на эту раздачу с друзьями:
В контактеFacebookОдноклассникиTwitterLivejournalМой МирLiveinternet
 

 
Показать сообщения:    


Вы не можете начинать темы
Вы не можете отвечать на сообщения
Вы не можете редактировать свои сообщения
Вы не можете удалять свои сообщения
Вы не можете голосовать в опросах
Вы не можете прикреплять файлы к сообщениям
Вы можете скачивать файлы