Loading...
Error

Скачать Господин Оформитель (Олег Тепцов) [1988, драма, мистика, экранизация, DVDRip-AVC] [Sub Eng] торрент без регистрации

Статистика раздачи
Размер:  2,35 GB   |    Скачан:  16 раз
Сидов:  2  [  0 KB/s  ]  
 
 
 
Автор Сообщение

Marsianka

[] 

Название: Господин оформитель
Год выпуска: 1988
Выпущено: СССР, Ленфильм
Жанр: драма, мистика, экранизация
Режиссер: Олег Тепцов
В ролях: Виктор Авилов, Анна Демьяненко, Михаил Козаков, Иван Краско, Вадим Лобанов, Валентина Малахиева, Константин Лукашов, Константин Комаров, Юрий Башков, Юрий Ароян, Владимир Миняйло, Артур Ваха, Азамат Багиров

О фильме: По мотивам рассказа Александра Грина "Серый автомобиль"
Мистическая история, поединок, происходящий между художником и его творением - ожившим манекеном прекрасной девушки, разбивающим жизни своих поклонников. Все действие разворачивается на фоне великолепия дворцов и костюмов эпохи модерна. Фильм пронизан неповторимой загадочностью Серебряного века.



Продолжительность: 01:43:16
Субтитры: Английские
Навигация по главам: Есть

Файл
Качество: DVDRip-AVC
Видео: MPEG-4 AVC, 2616 Кбит/сек, 718х576@765х576, 25,000 кадров/сек
Аудио №1 AC3, 5.1 ch, 448 Кбит/сек
Аудио №2 AC3, 1 ch, 192 Кбит/сек

Релиз от:
Уникальный идентификатор : 238081951746775742838997023732781788870 (0xB31CEA7F8C465610A8797482DD2FAEC6)
Полное имя : Господин.оформитель.1988.DVDRip-AVC.mzma.mkv
Формат : Matroska
Версия формата : Version 2
Размер файла : 2,35 Гбайт
Продолжительность : 1 ч. 43 м.
Общий поток : 3258 Кбит/сек
Название фильма : Господин оформитель 1988 (mzma)
Дата кодирования : UTC 2017-04-08 21:41:51
Программа кодирования : mkvmerge v3.4.0 ('Rapunzel') сборка от May 15 2010 09:38:20
Библиотека кодирования : libebml v0.8.0 + libmatroska v0.9.0

Видео
Идентификатор : 1
Формат : AVC
Формат/Информация : Advanced Video Codec
Профиль формата : High@L4.1
Параметр CABAC формата : Да
Параметр ReFrames формата : 16 кадров
Идентификатор кодека : V_MPEG4/ISO/AVC
Продолжительность : 1 ч. 43 м.
Битрейт : 2616 Кбит/сек
Ширина : 718 пикселей
Высота : 576 пикселей
Соотношение сторон : 4:3
Соотношение сторон в оригинале : 4:3
Режим частоты кадров : Постоянный
Частота кадров : 25,000 кадров/сек
Цветовое пространство : YUV
Субдискретизация насыщенности : 4:2:0
Битовая глубина : 8 бит
Тип развёртки : Прогрессивная
Бит/(Пиксели*Кадры) : 0.253
Размер потока : 1,84 Гбайт (78%)
Заголовок : RIP - MZMA
Библиотека кодирования : x264 core 148 r2721kMod 72d53ab
Настройки программы : cabac=1 / ref=16 / deblock=1:-3:-3 / analyse=0x3:0x113 / me=umh / subme=11 / psy=1 / fade_compensate=0.00 / psy_rd=1.00:0.00 / mixed_ref=1 / me_range=48 / chroma_me=1 / trellis=2 / 8x8dct=1 / cqm=0 / deadzone=21,11 / fast_pskip=0 / chroma_qp_offset=-2 / threads=6 / lookahead_threads=1 / sliced_threads=0 / nr=0 / decimate=0 / interlaced=0 / bluray_compat=0 / constrained_intra=0 / fgo=0 / bframes=16 / b_pyramid=2 / b_adapt=2 / b_bias=0 / direct=3 / weightb=1 / open_gop=0 / weightp=2 / keyint=250 / keyint_min=25 / scenecut=40 / intra_refresh=0 / rc_lookahead=60 / rc=2pass / mbtree=1 / bitrate=2616 / ratetol=1.0 / qcomp=0.60 / qpmin=0 / qpmax=69 / qpstep=4 / cplxblur=20.0 / qblur=0.5 / vbv_maxrate=50000 / vbv_bufsize=62500 / nal_hrd=none / filler=0 / ip_ratio=1.40 / aq=1:1.00
Язык : Russian
Default : Да
Forced : Нет

Аудио #1
Идентификатор : 2
Формат : AC-3
Формат/Информация : Audio Coding 3
Параметр Endianness формата : Big
Идентификатор кодека : A_AC3
Продолжительность : 1 ч. 43 м.
Вид битрейта : Постоянный
Битрейт : 448 Кбит/сек
Каналы : 6 каналов
Расположение каналов : Front: L C R, Side: L R, LFE
Частота : 48,0 КГц
Частота кадров : 31,250 кадров/сек (1536 spf)
Битовая глубина : 16 бит
Метод сжатия : С потерями
Размер потока : 331 Мбайт (14%)
Язык : Russian
Default : Да
Forced : Нет

Аудио #2
Идентификатор : 3
Формат : AC-3
Формат/Информация : Audio Coding 3
Параметр Endianness формата : Big
Идентификатор кодека : A_AC3
Продолжительность : 1 ч. 43 м.
Вид битрейта : Постоянный
Битрейт : 192 Кбит/сек
Каналы : 1 канал
Расположение каналов : Front: C
Частота : 48,0 КГц
Частота кадров : 31,250 кадров/сек (1536 spf)
Битовая глубина : 16 бит
Метод сжатия : С потерями
Размер потока : 142 Мбайт (6%)
Язык : Russian
Default : Нет
Forced : Нет

Текст
Идентификатор : 4
Формат : UTF-8
Идентификатор кодека : S_TEXT/UTF8
Идентификатор кодека/Информация : UTF-8 Plain Text
Язык : English
Default : Нет
Forced : Нет

Меню
00:00:00.000 : en:Chapter 1
00:07:26.400 : en:Chapter 2
00:10:28.320 : en:Chapter 3
00:13:12.480 : en:Chapter 4
00:17:20.160 : en:Chapter 5
00:23:40.320 : en:Chapter 6
00:28:18.720 : en:Chapter 7
00:36:24.000 : en:Chapter 8
00:40:01.920 : en:Chapter 9
00:44:02.400 : en:Chapter 10
00:47:47.040 : en:Chapter 11
00:51:10.560 : en:Chapter 12
00:59:36.960 : en:Chapter 13
01:08:26.400 : en:Chapter 14
01:13:28.800 : en:Chapter 15
01:19:44.640 : en:Chapter 16
01:25:09.600 : en:Chapter 17
01:30:17.280 : en:Chapter 18
01:35:15.360 : en:Chapter 19
01:38:59.040 : en:Chapter 20
В исходном DVD имеется дефект звука в шестиканальной аудиодорожке. Во фрагменте 01:09:30>01:10:12 не слышен диалог художника с кладбищенским сторожем, хотя все фоновые шумы имеются в наличии. В данном рипе этот дефект отсутствует.
Basilevs - За исправленную шестиканальную аудиодорожку

"Господин оформитель" - первый из двух художественных фильмов, поставленных кинорежиссером Олегом Тепцовым. Первоначально был снят как среднеметражная дипломная работа. Первая версия картины (считается, что она не сохранилась), также с музыкой Сергея Курёхина (но, опять же, другим ее вариантом), была закончена и представлена худсовету Госкино летом 1986 года. Худсовету фильм понравился, и режиссер получил дополнительные деньги, чтобы сделать полнометражный вариант фильма. Впоследствии Олег Тепцов поставил игровой фильм "Посвященный" (1989), а также документальные фильмы "Красная армия" (1991) и "Похороны Ленина" (1993), после чего перестал заниматься кинорежиссурой.
В качестве дома Грильо в фильме выступает знаменитый петербургский особняк Фолленвейдера, также мелькающий в эпизоде в "Приключениях Шерлока Холмса и доктора Ватсона" и "играющий роль" клуба самоубийц в "Приключениях принца Флоризеля".
В роли Анны-Марии снялась непрофессиональная актриса Анна Борисовна Демьяненко, которой на момент создания первой редакции фильма было 16 лет. После блистательного кинодебюта в "Господине оформителе" Анна пыталась поступить в театральный ВУЗ на актерский факультет, однако, пройти по конкурсу ей не удалось. Снявшись в небольших ролях еще в нескольких фильмах, Анна Демьяненко вышла замуж и в 1994 году уехала в США.
На некоторых сайтах часто можно видеть кадры из фильма "Господин оформитель", в которых актриса позирует в мастерской Платона Андреевича с обнаженной грудью, с подписью "Анна Демьяненко". Однако, на самом деле в кадрах с "обнаженкой" несовершеннолетнюю Анну Демьяненко заменяла загримированная совершеннолетняя натурщица Светлана Терентьева.
Двор дома, в котором жил Платон Андреевич, снимался во втором дворе дома № 55 по Галерной улице в Санкт-Петербурге.
Знаменитый финальный эпизод фильма был снят на Лазаревском (бывшем Колтовском) мосту. Это был мост через Малую Невку в Санкт-Петербурге (тогда Ленинграде), в створе Пионерской улицы, соединявший Крестовский остров и Петроградскую сторону. Когда фильм вышел на экраны, Лазаревский мост был еще открыт для движения наземного транспорта. До 2002 года мостом пользовались пешеходы и трамваи, у которых в Приморском парке Победы было "кольцо". К 2007 году износ Лазаревского моста достиг 100%. Летом 2008 года он был разобран и реконструирован.
Музыку для фильма создал петербургский композитор-авангардист Сергей Курёхин (1954-1996). Причем, фактически музыка писалась два раза. Некоторые музыкальные композиции, звучащие в саундтреке фильма, впоследствии вошли в альбом Сергея Курёхина "Опера богатых" (1991).
Пролог фильма представляет собой музыкально-пластическую композицию по пьесе Александра Блока "Балаганчик". Роль Пьеро сыграл режиссер фильма Олег Тепцов.
В финале фильма, в сцене, где художник был ранен и притворился мёртвым, звучит стихотворение Александра Блока "Шаги командора" в исполнении поэта Эдуарда Багрицкого.
Запись потрясающего вокала Ольги Кондиной, звучащая в финале фильма, пущена Сергеем Курёхиным в обратную сторону, задом наперёд, в результате чего возникло столь фантастическое и инфернальное звучание.



Скачать Господин.Оформитель.(Олег.Тепцов).[1988.драма.мистика.экранизация.DVDRip-AVC].[Sub.Eng].torrent без регистрации
Золото ЗОЛОТАЯ РАЗДАЧА! СКАЧАННОЕ НЕ ЗАСЧИТЫВАЕТСЯ! Золото
Дата: Зарегистрирован   [ Тип: внешний ] Как тут cкачать?
MAGNET ссылка
MAGNET ссылка


Скачать .torrent

13 KB

Статус: проверено DHT
Скачан: торрент - 16 раз, раздача полностью - 9 раз
Размер: 2,35 GB
Оценка:  - (Голосов: 0)
Поблагодарили: 1
Поделиться ссылкой на эту раздачу с друзьями:
В контактеFacebookОдноклассникиTwitterLivejournalМой МирLiveinternet
 

 
Показать сообщения:    


Вы не можете начинать темы
Вы не можете отвечать на сообщения
Вы не можете редактировать свои сообщения
Вы не можете удалять свои сообщения
Вы не можете голосовать в опросах
Вы не можете прикреплять файлы к сообщениям
Вы можете скачивать файлы