Loading...
Error

Скачать Трижды о любви (Виктор Трегубович) [1981, драма, мелодрама, DVDRip-AVC] торрент без регистрации

Статистика раздачи
Размер:  1,66 GB   |    Скачан:  11 раз
Сидов:  3  [  0 KB/s  ]  
 
 
 
Автор Сообщение

Marsianka

[] 

Информация о фильме
Название: Трижды о любви
Год выхода: 1981
Жанр: драма, мелодрама
Режиссер: Виктор Трегубович
В ролях: Сергей Проханов, Марина Трегубович, Марина Левтова, Надежда Шумилова, Валентина Ковель, Алексей Миронов, Иван Агафонов, Елена Облеухова, Алексей Жарков, Людмила Ксенофонтова

О фильме: Колхозный шофер Василий Лобанов возвращается из армии и узнает, что его любимая вышла замуж. Ему предстоит не только осознать случившееся, но и выбрать подходящую себе невесту по собственной системе.



Страна: СССР
Студия: Ленфильм
Продолжительность: 01:23:23

Файл
Кодек: х264
Качество: SATRip-AVC
Видео: MPEG-4 AVC, 700x370@764x370, 25 fps, 2614 Кбит/с
Звук: AC3, 2 ch, 192 Кбит/с

Общее
Уникальный идентификатор : 232125625552522519574215941260827267660 (0xAEA1C4F192DE4F94B064F38D328D924C)
Полное имя : D:Трижды о любви_1981-SATRip-AVC_KORSAR.mkv
Формат : Matroska
Размер файла : 1,66 Гбайт
Продолжительность : 1 ч. 23 м.
Общий поток : 2860 Кбит/сек
Название фильма : Трижды о любви_1981-SATRip-AVC_KORSAR
Дата кодирования : UTC 2017-10-08 14:30:32
Программа кодирования : mkvmerge v5.8.0 ('No Sleep / Pillow') built on Sep 2 2012 15:37:04
Библиотека кодирования : libebml v1.2.3 + libmatroska v1.3.0

Видео
Идентификатор : 1
Формат : AVC
Формат/Информация : Advanced Video Codec
Профиль формата : High@L4.1
Параметр CABAC формата : Да
Параметр ReFrames формата : 14 кадры
Идентификатор кодека : V_MPEG4/ISO/AVC
Продолжительность : 1 ч. 23 м.
Битрейт : 2611 Кбит/сек
Ширина : 700 пикс.
Высота : 370 пикс.
Соотношение сторон : 2,062
Соотношение сторон в оригинале : 2,064
Частота кадров : 25,000 кадр/сек
Цветовое пространство : YUV
Подвыборка цветности : 4:2:0
Битовая глубина : 8 бит
Тип развёртки : Прогрессивная
Бит/(Пиксели*Кадры) : 0.403
Размер потока : 1,52 Гбайт (91%)
Библиотека кодирования : x264 core 148 r2744kMod b97ae06
Настройки программы : cabac=1 / ref=14 / deblock=1:-2:-1 / analyse=0x3:0x133 / me=umh / subme=10 / psy=1 / fade_compensate=0.00 / psy_rd=1.05:0.10 / mixed_ref=1 / me_range=32 / chroma_me=1 / trellis=2 / 8x8dct=1 / cqm=0 / deadzone=21,11 / fast_pskip=1 / chroma_qp_offset=-3 / threads=12 / lookahead_threads=2 / sliced_threads=0 / nr=0 / decimate=1 / interlaced=0 / bluray_compat=0 / constrained_intra=0 / bframes=8 / b_pyramid=2 / b_adapt=2 / b_bias=0 / direct=1 / weightb=1 / open_gop=0 / weightp=2 / keyint=250 / keyint_min=25 / scenecut=40 / intra_refresh=0 / rc=crf / mbtree=0 / crf=17.0000 / qcomp=0.63 / qpmin=0 / qpmax=39 / qpstep=4 / ip_ratio=1.40 / pb_ratio=1.30 / aq=1:1.00
Язык : English
Основные цвета : BT.470-6 System B, BT.470-6 System G, BT.601-6 625, BT.1358 625, BT.1700 625 PAL, BT.1700 625 SECAM
Характеристики трансфера : BT.470-6 System B, BT.470-6 System G
Коэффициенты матрицы : BT.470-6 System B, BT.470-6 System G, BT.601-6 625, BT.1358 625, BT.1700 625 PAL, BT.1700 625 SECAM, IEC 61966-2-4 601

Аудио
Идентификатор : 2
Формат : AC-3
Формат/Информация : Audio Coding 3
Расширение режима : CM (complete main)
Идентификатор кодека : A_AC3
Продолжительность : 1 ч. 23 м.
Вид битрейта : Постоянный
Битрейт : 192 Кбит/сек
Канал(ы) : 2 канала(ов)
Расположение каналов : Front: L R
Частота : 48,0 КГц
Битовая глубина : 16 бит
Метод сжатия : С потерями
Размер потока : 114 Мбайт (7%)
Язык : Russian
Релиз от:



Скачать Трижды.о.любви.(Виктор.Трегубович).[1981.драма.мелодрама.DVDRip-AVC].torrent без регистрации
Золото ЗОЛОТАЯ РАЗДАЧА! СКАЧАННОЕ НЕ ЗАСЧИТЫВАЕТСЯ! Золото
Дата: Зарегистрирован   [ Тип: внешний ] Как тут cкачать?
MAGNET ссылка
MAGNET ссылка


Скачать .torrent

18 KB

Статус: проверено DHT
Скачан: торрент - 11 раз, раздача полностью - 9 раз
Размер: 1,66 GB
Оценка:  - (Голосов: 0)
Поблагодарили: 0
Поделиться ссылкой на эту раздачу с друзьями:
В контактеFacebookОдноклассникиTwitterLivejournalМой МирLiveinternet
 

 
Показать сообщения:    


Вы не можете начинать темы
Вы не можете отвечать на сообщения
Вы не можете редактировать свои сообщения
Вы не можете удалять свои сообщения
Вы не можете голосовать в опросах
Вы не можете прикреплять файлы к сообщениям
Вы можете скачивать файлы