Loading...
Error

Скачать Последняя охота (Игорь Шешуков) [1979, боевик, приключения, SATRip-AVC] торрент без регистрации

Статистика раздачи
Размер:  1,3 GB   |    Скачан:  14 раз
Сидов:  1  [  0 KB/s  ]  
 
 
 
Автор Сообщение

Marsianka

[] 

Последняя охота


Страна: СССР
Жанр: боевик, приключения
Год выпуска: 1979
Продолжительность: 01:15:56
Перевод: Не требуется
Режиссер: Игорь Шешуков
В ролях: Юрий Богатырев, Олег Борисов, Иван Бортник, Николай Гринько, Алексей Жарков, Альгимантас Масюлис,
Анатолий Рудаков, Николай Рыбников (II), Максим Мунзук, Марина Лихун, Будда Вампилов, Олег Ли, Болот Бейшеналиев,
Афанасий Тришкин.

Описание: 20-е годы. Шхуна с иностранными пиратами пришвартовывается на побережье Северного Ледовитого океана
к фактории Русского Восточносибирского общества, скупающего у местного населения бесценную пушнину и золото.
Узнав, что за годы советской власти, которая еще не докатилась до этих мест, в хранилище скопились огромные богатства,
пираты во главе со своим капитаном Хорсфилдом решают забрать сокровища.
В борьбу с пиратами вступают управляющий факторией Иван Шатохин, учитель Сергей и местные жители-эскимосы...



Кодек: х264
Качество: SATRip-AVC
Видео: MPEG-4 AVC, 716х380@764x380, 25 fps, 2250 Кбит/с
Аудио: АС3, 2h, 192 Кбит/с
Субтитры: Нет

Доп: За исходный DVB спасибо Cheef mate

x264 [info]: frame I:720 Avg QP:16.58 size: 54977
x264 [info]: frame P:26802 Avg QP:18.19 size: 28376
x264 [info]: frame B:86368 Avg QP:19.60 size: 5570

Общее
Уникальный идентификатор : 209609981800778678864365383155406613873 (0x9DB169FFC99D172CA0729C6D582C2D71)
Полное имя : I:сссрПоследняя охота 1979_SATRip-AVC_KORSAR.mkv
Формат : Matroska
Версия формата : Version 2
Размер файла : 1,30 Гбайт
Продолжительность : 1 ч. 15 м.
Общий поток : 2444 Кбит/сек
Дата кодирования : UTC 2018-03-11 14:30:21
Программа кодирования : mkvmerge v5.8.0 ('No Sleep / Pillow') built on Sep 2 2012 15:37:04
Библиотека кодирования : libebml v1.2.3 + libmatroska v1.3.0

Видео
Идентификатор : 1
Формат : AVC
Формат/Информация : Advanced Video Codec
Профиль формата : High@L4.1
Настройки формата : CABAC / 15 Ref Frames
Параметр CABAC формата : Да
Параметр RefFrames формата : 15 кадров
Идентификатор кодека : V_MPEG4/ISO/AVC
Продолжительность : 1 ч. 15 м.
Битрейт : 2250 Кбит/сек
Ширина : 716 пикселей
Высота : 380 пикселей
Соотношение сторон : 2,008
Соотношение сторон в оригинале : 2,010
Режим частоты кадров : Постоянный
Частота кадров : 25,000 кадров/сек
Цветовое пространство : YUV
Субдискретизация насыщенности : 4:2:0
Битовая глубина : 8 бит
Тип развёртки : Прогрессивная
Бит/(Пиксели*Кадры) : 0.331
Размер потока : 1,17 Гбайт (90%)
Библиотека кодирования : x264 core 152 r2851kMod ba24899
Настройки программы : cabac=1 / ref=15 / deblock=1:-2:-2 / analyse=0x3:0x133 / me=umh / subme=11 / psy=1 / fade_compensate=0.00 / psy_rd=1.05:0.10 / mixed_ref=1 / me_range=48 / chroma_me=1 / trellis=2 / 8x8dct=1 / cqm=0 / deadzone=21,11 / fast_pskip=0 / chroma_qp_offset=-3 / threads=12 / lookahead_threads=2 / sliced_threads=0 / nr=0 / decimate=0 / interlaced=0 / bluray_compat=0 / constrained_intra=0 / bframes=9 / b_pyramid=2 / b_adapt=2 / b_bias=0 / direct=3 / weightb=1 / open_gop=0 / weightp=2 / keyint=250 / keyint_min=25 / scenecut=40 / intra_refresh=0 / rc_lookahead=40 / rc=2pass / mbtree=0 / bitrate=2250 / ratetol=1.0 / qcomp=0.60 / qpmin=0 / qpmax=39 / qpstep=4 / cplxblur=20.0 / qblur=0.5 / vbv_maxrate=50000 / vbv_bufsize=62500 / nal_hrd=none / filler=0 / ip_ratio=1.15 / pb_ratio=1.30 / aq=1:1.00
Язык : English
Default : Да
Forced : Нет
Цветовой диапазон : Limited
Основные цвета : BT.601 PAL
Характеристики трансфера : BT.470 System B, BT.470 System G
Коэффициенты матрицы : BT.470 System B, BT.470 System G

Аудио
Идентификатор : 2
Формат : AC-3
Формат/Информация : Audio Coding 3
Параметр Endianness формата : Big
Идентификатор кодека : A_AC3
Продолжительность : 1 ч. 15 м.
Вид битрейта : Постоянный
Битрейт : 192 Кбит/сек
Каналы : 2 канала
Расположение каналов : Front: L R
Частота : 48,0 КГц
Частота кадров : 31,250 кадров/сек (1536 SPF)
Битовая глубина : 16 бит
Метод сжатия : С потерями
Размер потока : 104 Мбайт (8%)
Язык : Russian
Default : Да
Forced : Нет





Скачать Последняя.охота.(Игорь.Шешуков).[1979.боевик.приключения.SATRip-AVC].torrent без регистрации
Золото ЗОЛОТАЯ РАЗДАЧА! СКАЧАННОЕ НЕ ЗАСЧИТЫВАЕТСЯ! Золото
Дата: Зарегистрирован   [ Тип: внутренний ] Как тут cкачать?
MAGNET ссылка
MAGNET ссылка


Скачать .torrent

14 KB

Статус: проверено DHT
Скачан: торрент - 14 раз, раздача полностью - 12 раз
Размер: 1,3 GB
Оценка:  - (Голосов: 0)
Поблагодарили: 0
Поделиться ссылкой на эту раздачу с друзьями:
В контактеFacebookОдноклассникиTwitterLivejournalМой МирLiveinternet
 

 
Показать сообщения:    


Вы не можете начинать темы
Вы не можете отвечать на сообщения
Вы не можете редактировать свои сообщения
Вы не можете удалять свои сообщения
Вы не можете голосовать в опросах
Вы не можете прикреплять файлы к сообщениям
Вы можете скачивать файлы