Loading...
Error

Скачать Кто заплатит за удачу? (Константин Худяков) [1980, драма, приключения, SATRip-AVC] торрент без регистрации

Статистика раздачи
Размер:  1,17 GB   |    Скачан:  17 раз
Сидов:  1  [  0 KB/s  ]  
 
 
 
Автор Сообщение

Marsianka

[] 

Кто заплатит за удачу?


Страна: СССР
Жанр: драма, приключения
Год выпуска: 1980
Продолжительность: 01:08:57
Перевод: Не требуется
Режиссер: Константин Худяков
В ролях: Виталий Соломин, Василий Бочкарёв, Леонид Филатов, Наталья Данилова, Александр Филиппенко,
Михаил Чигарёв, Афанасий Тришкин, Юрий Дубровин

Описание: 1919 г. Двое подпольщиков пробираются в занятый белыми приморский город, чтобы убить провокатора - следователя контрразведки.
Во время покушения один из террористов гибнет, другую, Антонину Чумак, захватывают в плен. Анархист,
большевик и казак пытаются спасти от виселецы белогвардейцев Антонину.



Кодек: х264
Качество: SATRip-AVC
Видео: MPEG-4 AVC, 720х322@768x322, 25 fps, 2300 Кбит/с
Аудио: АС3, 2h, 224 Кбит/с
Субтитры: Нет

x264 [info]: frame I:589 Avg QP:16.80 size: 48951
x264 [info]: frame P:29426 Avg QP:18.95 size: 22159
x264 [info]: frame B:70941 Avg QP:20.37 size: 6771

Общее
Уникальный идентификатор : 200917149418261383341915817573916495027 (0x97273C45D50DA397AFCA25F272EE4CB3)
Полное имя : I:сссрКто заплатит за удачу 1980_SATRip-AVC_KORSAR.mkv
Формат : Matroska
Версия формата : Version 2
Размер файла : 1,17 Гбайт
Продолжительность : 1 ч. 7 м.
Общий поток : 2494 Кбит/сек
Дата кодирования : UTC 2018-03-15 20:30:43
Программа кодирования : mkvmerge v5.8.0 ('No Sleep / Pillow') built on Sep 2 2012 15:37:04
Библиотека кодирования : libebml v1.2.3 + libmatroska v1.3.0

Видео
Идентификатор : 1
Формат : AVC
Формат/Информация : Advanced Video Codec
Профиль формата : High@L4.1
Настройки формата : CABAC / 16 Ref Frames
Параметр CABAC формата : Да
Параметр RefFrames формата : 16 кадров
Идентификатор кодека : V_MPEG4/ISO/AVC
Продолжительность : 1 ч. 7 м.
Битрейт : 2300 Кбит/сек
Ширина : 720 пикселей
Высота : 322 пикселя
Соотношение сторон : 2,40:1
Режим частоты кадров : Постоянный
Частота кадров : 25,000 кадров/сек
Цветовое пространство : YUV
Субдискретизация насыщенности : 4:2:0
Битовая глубина : 8 бит
Тип развёртки : Прогрессивная
Бит/(Пиксели*Кадры) : 0.397
Размер потока : 1,06 Гбайт (90%)
Библиотека кодирования : x264 core 152 r2851kMod ba24899
Настройки программы : cabac=1 / ref=16 / deblock=1:-2:-1 / analyse=0x3:0x133 / me=umh / subme=11 / psy=1 / fade_compensate=0.00 / psy_rd=1.02:0.07 / mixed_ref=1 / me_range=48 / chroma_me=1 / trellis=2 / 8x8dct=1 / cqm=0 / deadzone=21,11 / fast_pskip=0 / chroma_qp_offset=-3 / threads=10 / lookahead_threads=2 / sliced_threads=0 / nr=0 / decimate=0 / interlaced=0 / bluray_compat=0 / constrained_intra=0 / bframes=10 / b_pyramid=2 / b_adapt=2 / b_bias=0 / direct=3 / weightb=1 / open_gop=0 / weightp=2 / keyint=250 / keyint_min=25 / scenecut=40 / intra_refresh=0 / rc_lookahead=40 / rc=2pass / mbtree=0 / bitrate=2300 / ratetol=1.0 / qcomp=0.60 / qpmin=0 / qpmax=39 / qpstep=4 / cplxblur=20.0 / qblur=0.5 / vbv_maxrate=50000 / vbv_bufsize=62500 / nal_hrd=none / filler=0 / ip_ratio=1.15 / pb_ratio=1.30 / aq=1:1.00
Язык : English
Default : Да
Forced : Нет
Цветовой диапазон : Limited
Основные цвета : BT.601 PAL
Характеристики трансфера : BT.470 System B, BT.470 System G
Коэффициенты матрицы : BT.470 System B, BT.470 System G

Аудио
Идентификатор : 2
Формат : AC-3
Формат/Информация : Audio Coding 3
Параметр Endianness формата : Big
Идентификатор кодека : A_AC3
Продолжительность : 1 ч. 7 м.
Вид битрейта : Постоянный
Битрейт : 192 Кбит/сек
Каналы : 2 канала
Расположение каналов : Front: L R
Частота : 48,0 КГц
Частота кадров : 31,250 кадров/сек (1536 SPF)
Битовая глубина : 16 бит
Метод сжатия : С потерями
Размер потока : 92,4 Мбайт (8%)
Язык : Russian
Default : Да
Forced : Нет



Скачать Кто.заплатит.за.удачу?.(Константин.Худяков).[1980.драма.приключения.SATRip-AVC].torrent без регистрации
Золото ЗОЛОТАЯ РАЗДАЧА! СКАЧАННОЕ НЕ ЗАСЧИТЫВАЕТСЯ! Золото
Дата: Зарегистрирован   [ Тип: внутренний ] Как тут cкачать?
MAGNET ссылка
MAGNET ссылка


Скачать .torrent

13 KB

Статус: проверено DHT
Скачан: торрент - 17 раз, раздача полностью - 9 раз
Размер: 1,17 GB
Оценка:  - (Голосов: 0)
Поблагодарили: 2
Поделиться ссылкой на эту раздачу с друзьями:
В контактеFacebookОдноклассникиTwitterLivejournalМой МирLiveinternet
 

 
Показать сообщения:    


Вы не можете начинать темы
Вы не можете отвечать на сообщения
Вы не можете редактировать свои сообщения
Вы не можете удалять свои сообщения
Вы не можете голосовать в опросах
Вы не можете прикреплять файлы к сообщениям
Вы можете скачивать файлы