Loading...
Error

Скачать Аляска / Alaska (Фрэйзер Кларк Хестон) [1996, приключения, семейный, WEB-DLRip] [720p] [DVO (НТВ+)]+[MVO (РТР)]+[AVO (Андрей Гаврилов)]+[Dub Fre.]+[Оригинал Eng]+[Sub Rus, Eng]x2 торрент без регистрации

Статистика раздачи
Размер:  7,13 GB   |    Скачан:  9 раз
Сидов:  1  [  0 KB/s  ]  
 
 
 
Автор Сообщение

Marsianka

[] 

Название: Аляска
Оригинальное название: Alaska
Год выпуска: 1996
Выпущено: США, Castle Rock Entertainment, Columbia Pictures Corporation, Fuchs/Burg
Жанр: приключения, семейный
Режиссер: Фрэйзер Кларк Хестон
В ролях: Тора Бёрч, Винсент Картхайзер, Дирк Бенедикт, Гордон Тутусис, Данкан Фрэйзер, Бен Кардинал, Чарлтон Хестон, Райан Кент, Дон С. Дэвис, Долли Мэдсен

О фильме: Джейк Бернс – отец-одиночка, воспитывающий двоих детей-подростков. Не так просто ему найти общий язык с сыном и дочерью особенно после того, как недавно погибла их мать. Джейк работает пилотом самолета в одной частной авиакомпании, и однажды после ссоры с детьми в очередном рейсе он терпит бедствие над Аляской. Дети, узнав про аварию, спешат ему на помощь. В дороге они знакомятся с маленьким белым медвежонком Кэбби, который остался сиротой после того, как охотники убили его родителей. Медвежонок показывает Шону и Джесси дорогу в бескрайних снегах и помогает найти отца.



Продолжительность: 01:49:10
Профессиональный многоголосый, профессиональный двухголосый, авторский
Субтитры: Английские, французские
Навигация по главам: Есть
Файл
Качество: WEB-DLRip 720p
Видео: MPEG-4 AVC, 8293 Кбит/сек, 1280x540, 23,976 кадра/сек
Аудио #1: AC3, 2 ch, 192 Кбит/сек | Русский, профессиональный (двухголосый закадровый) НТВ+
Аудио #2: AC3, 2 ch, 192 Кбит/сек | Русский, профессиональный (многоголосый закадровый) РТР
Аудио #3: AC3, 2 ch, 256 Кбит/сек | Русский, авторский (одноголосый закадровый) Андрей Гаврилов
Аудио #4: EAC3, 2 ch, 224 Кбит/сек | Английский, оригинал
Аудио #5: AC3, 2 ch, 192 Кбит/сек | Французский, профессиональный (полное дублирование)
Релиз от:
x264 [info]: frame I:982 Avg QP:17.36 size:145103
x264 [info]: frame P:37271 Avg QP:19.58 size: 72137
x264 [info]: frame B:118793 Avg QP:21.48 size: 33292
-----------------------------------------------------
Общее
Уникальный идентификатор : 200782912843676201797424875101048506121 (0x970D61E60F753F9599CB0EF049DB8709)
Полное имя : Аляска.1996.WEB-DLRip.720p.KORSAR.mkv
Формат : Matroska
Версия формата : Version 2
Размер файла : 7,13 Гбайт
Продолжительность : 1 ч. 49 м.
Общий поток : 9347 Кбит/сек
Дата кодирования : UTC 2018-02-28 07:07:52
Программа кодирования : mkvmerge v5.8.0 ('No Sleep / Pillow') built on Sep 2 2012 15:37:04
Библиотека кодирования : libebml v1.2.3 + libmatroska v1.3.0

Видео
Идентификатор : 1
Формат : AVC
Формат/Информация : Advanced Video Codec
Профиль формата : High@L4.1
Настройки формата : CABAC / 12 Ref Frames
Параметр CABAC формата : Да
Параметр RefFrames формата : 12 кадров
Идентификатор кодека : V_MPEG4/ISO/AVC
Продолжительность : 1 ч. 49 м.
Битрейт : 8293 Кбит/сек
Ширина : 1280 пикселей
Высота : 540 пикселей
Соотношение сторон : 2,40:1
Режим частоты кадров : Постоянный
Частота кадров : 23,976 (24000/1001) кадра/сек
Цветовое пространство : YUV
Субдискретизация насыщенности : 4:2:0
Битовая глубина : 8 бит
Тип развёртки : Прогрессивная
Бит/(Пиксели*Кадры) : 0.500
Размер потока : 6,18 Гбайт (87%)
Заголовок : RIP | MZMA
Библиотека кодирования : x264 core 152 r2851kMod ba24899
Настройки программы : cabac=1 / ref=12 / deblock=1:-2:-2 / analyse=0x3:0x113 / me=umh / subme=11 / psy=1 / fade_compensate=0.00 / psy_rd=1.00:0.00 / mixed_ref=1 / me_range=48 / chroma_me=1 / trellis=2 / 8x8dct=1 / cqm=0 / deadzone=21,11 / fast_pskip=0 / chroma_qp_offset=-2 / threads=6 / lookahead_threads=1 / sliced_threads=0 / nr=0 / decimate=0 / interlaced=0 / bluray_compat=0 / constrained_intra=0 / bframes=16 / b_pyramid=2 / b_adapt=2 / b_bias=0 / direct=3 / weightb=1 / open_gop=0 / weightp=2 / keyint=240 / keyint_min=23 / scenecut=40 / intra_refresh=0 / rc_lookahead=40 / rc=2pass / mbtree=0 / bitrate=8293 / ratetol=1.0 / qcomp=0.60 / qpmin=0 / qpmax=69 / qpstep=4 / cplxblur=20.0 / qblur=0.5 / vbv_maxrate=50000 / vbv_bufsize=62500 / nal_hrd=none / filler=0 / ip_ratio=1.40 / pb_ratio=1.30 / aq=1:1.00
Язык : English
Default : Да
Forced : Нет
Цветовой диапазон : Limited
Основные цвета : BT.709
Характеристики трансфера : BT.709
Коэффициенты матрицы : BT.709

Аудио #1
Идентификатор : 2
Формат : AC-3
Формат/Информация : Audio Coding 3
Идентификатор кодека : A_AC3
Продолжительность : 1 ч. 49 м.
Вид битрейта : Постоянный
Битрейт : 192 Кбит/сек
Каналы : 2 канала
Расположение каналов : Front: L R
Частота : 48,0 КГц
Частота кадров : 31,250 кадров/сек (1536 SPF)
Битовая глубина : 16 бит
Метод сжатия : С потерями
Размер потока : 150 Мбайт (2%)
Заголовок : DVO | НТВ+
Язык : Russian
По умолчанию : Да
Принудительно : Нет

Аудио #2
Идентификатор : 3
Формат : AC-3
Формат/Информация : Audio Coding 3
Идентификатор кодека : A_AC3
Продолжительность : 1 ч. 49 м.
Вид битрейта : Постоянный
Битрейт : 192 Кбит/сек
Каналы : 2 канала
Расположение каналов : Front: L R
Частота : 48,0 КГц
Частота кадров : 31,250 кадров/сек (1536 SPF)
Битовая глубина : 16 бит
Метод сжатия : С потерями
Размер потока : 150 Мбайт (2%)
Заголовок : MVO | РТР
Язык : Russian
По умолчанию : Нет
Принудительно : Нет

Аудио #3
Идентификатор : 4
Формат : AC-3
Формат/Информация : Audio Coding 3
Идентификатор кодека : A_AC3
Продолжительность : 1 ч. 49 м.
Вид битрейта : Постоянный
Битрейт : 256 Кбит/сек
Каналы : 2 канала
Расположение каналов : Front: L R
Частота : 48,0 КГц
Частота кадров : 31,250 кадров/сек (1536 SPF)
Битовая глубина : 16 бит
Метод сжатия : С потерями
Размер потока : 200 Мбайт (3%)
Заголовок : AVO | А. Гаврилов
Язык : Russian
По умолчанию : Нет
Принудительно : Нет

Аудио #4
Идентификатор : 5
Формат : E-AC-3
Формат/Информация : Enhanced Audio Coding 3
Идентификатор кодека : A_EAC3
Продолжительность : 1 ч. 49 м.
Вид битрейта : Постоянный
Битрейт : 224 Кбит/сек
Каналы : 2 канала
Расположение каналов : Front: L R
Частота : 48,0 КГц
Частота кадров : 187,500 кадров/сек (256 SPF)
Метод сжатия : С потерями
Размер потока : 175 Мбайт (2%)
Заголовок : Original
Язык : English
По умолчанию : Нет
Принудительно : Нет

Аудио #5
Идентификатор : 6
Формат : AC-3
Формат/Информация : Audio Coding 3
Идентификатор кодека : A_AC3
Продолжительность : 1 ч. 49 м.
Вид битрейта : Постоянный
Битрейт : 192 Кбит/сек
Каналы : 2 канала
Расположение каналов : Front: L R
Частота : 48,0 КГц
Частота кадров : 31,250 кадров/сек (1536 SPF)
Битовая глубина : 16 бит
Метод сжатия : С потерями
Задержка видео : 1 мс.
Размер потока : 150 Мбайт (2%)
Заголовок : DUB
Язык : French
По умолчанию : Нет
Принудительно : Нет

Текст #1
Идентификатор : 7
Формат : UTF-8
Идентификатор кодека : S_TEXT/UTF8
Идентификатор кодека/Информация : UTF-8 Plain Text
Язык : English
По умолчанию : Нет
Принудительно : Нет

Текст #2
Идентификатор : 8
Формат : UTF-8
Идентификатор кодека : S_TEXT/UTF8
Идентификатор кодека/Информация : UTF-8 Plain Text
Заголовок : SDH
Язык : English
По умолчанию : Нет
Принудительно : Нет

Текст #3
Идентификатор : 9
Формат : UTF-8
Идентификатор кодека : S_TEXT/UTF8
Идентификатор кодека/Информация : UTF-8 Plain Text
Язык : French
По умолчанию : Нет
Принудительно : Нет

Меню
00:00:00.000 : en:Aerial Credits.
00:03:19.852 : en:Perry's business.
00:05:23.342 : en:Jessie in a hurry.
00:08:49.348 : en:Stuck in something.
00:11:41.186 : en:Paradise... for some.
00:15:22.407 : en:Missing parents.
00:20:13.731 : en:Mayday.
00:24:45.670 : en:Just out of sight.
00:29:13.104 : en:Rough waters.
00:34:29.086 : en:Poachers' camp.
00:39:38.862 : en:"I want that bear!"
00:41:52.863 : en:Dinner interruptions.
00:47:16.519 : en:Wilderness walk.
00:50:32.215 : en:Unwanted company.
00:55:07.823 : en:Better way down?
01:00:36.285 : en:Cabin discovery.
01:04:26.798 : en:Hanging on.
01:06:35.978 : en:The searchers.
01:09:07.129 : en:Running rapids.
01:15:22.670 : en:Trust the bear.
01:19:38.092 : en:Cubby's way.
01:23:18.813 : en:Short copter ride.
01:26:49.557 : en:Found!
01:29:49.737 : en:End of their rope.
01:35:07.187 : en:A friend's help.
01:38:40.767 : en:Goodbye and thanks.
01:44:17.520 : en:End Credits.



Скачать Аляска.Alaska.(Фрэйзер.Кларк.Хестон).[1996.приключения.семейный.WEB-DLRip].[720p].[DVO.(НТВ+)]+[MVO.(РТР)]+[AVO.(Андрей.Гаврилов)]+[Dub.Fre.]+[Оригинал.Eng]+[Sub.Rus.Eng]x2.torrent без регистрации
Золото ЗОЛОТАЯ РАЗДАЧА! СКАЧАННОЕ НЕ ЗАСЧИТЫВАЕТСЯ! Золото
Дата: Зарегистрирован   [ Тип: внутренний ] Как тут cкачать?
MAGNET ссылка
MAGNET ссылка


Скачать .torrent

37 KB

Статус: проверено DHT
Скачан: торрент - 9 раз, раздача полностью - 4 раз
Размер: 7,13 GB
Оценка:  - (Голосов: 0)
Поблагодарили: 0
Поделиться ссылкой на эту раздачу с друзьями:
В контактеFacebookОдноклассникиTwitterLivejournalМой МирLiveinternet
 

 
Показать сообщения:    


Вы не можете начинать темы
Вы не можете отвечать на сообщения
Вы не можете редактировать свои сообщения
Вы не можете удалять свои сообщения
Вы не можете голосовать в опросах
Вы не можете прикреплять файлы к сообщениям
Вы можете скачивать файлы