Loading...
Error

Скачать Вердикт: Суд над МакМартинами / Indictment: The McMartin Trial (Мик Джексон) [1995, драма, криминал, триллер, реальные события, WEB-DLRip] [720p] [MVO]+[VO]+[AVO]+[Оригинал Eng]+[Sub Eng] торрент без регистрации

Статистика раздачи
Размер:  6,23 GB   |    Скачан:  8 раз
Сидов:  1  [  0 KB/s  ]  
 
 
 
Автор Сообщение

Marsianka

[] 

Название: Вердикт: Суд над МакМартинами
Оригинальное название: Indictment: The McMartin Trial
Год выпуска: 1995
Выпущено: США, Abby Mann Productions, Breakheart Films, HBO Pictures
Жанр: драма, криминал, триллер, реальные события
Режиссер: Мик Джексон
В ролях: Джеймс Вудс, Мерседес Рул, Лолита Давидович, Сэда Томпсон, Генри Томас, Ширли Найт, Марк Блум, Элисон Эллиотт, Челси Филд, Джо Урла

О фильме: Сюжет фильма основан на реальных событиях и повествует об одном из самых долгих и дорогостоящих судебных процессов. В начале 1980-х гг. в Калифорнии, США, владельцев дошкольного учреждения семью МакМартин обвинили в жестоком обращении с детьми и растлении. Расследование этого дела длилось семь лет.



Продолжительность: 02:11:42
Перевод: Профессиональный многоголосый, профессиональный одноголосый, авторский
Субтитры: Английские
Навигация по главам: Есть

Файл
Качество: WEB-DLRip 720p
Видео: MPEG-4 AVC, 5749 Кбит/сек, 1280x720, 23,976 кадра/сек
Аудио #1: AC3, 6 ch, 384 Кбит/сек | Русский, профессиональный (многоголосый закадровый) Novamedia
Аудио #2: AC3, 2 ch, 224 Кбит/сек | Русский, профессиональный (одноголосый закадровый) Николай Буров, кинокомпания "Нева-1"
Аудио #3: AC3, 2 ch, 192 Кбит/сек | Русский, авторский (одноголосый закадровый) Сергей Визгунов
Аудио #4: EAC3, 2 ch, 224 Кбит/сек | Английский, оригинал
Релиз от:
x264 [info]: frame I:1330 Avg QP:14.50 size:112850
x264 [info]: frame P:44833 Avg QP:16.40 size: 56846
x264 [info]: frame B:143296 Avg QP:18.31 size: 20779
-----------------------------------------------------
Общее
Уникальный идентификатор : 230540960589404587289723674217153800676 (0xAD7092EDC6FB193FA3864A6F1353A9E4)
Полное имя : Вердикт.Суд.над.МакМартинами.1995.WEB-DLRip.720p.KORSAR.mkv
Формат : Matroska
Версия формата : Version 2
Размер файла : 6,23 Гбайт
Продолжительность : 2 ч. 11 м.
Общий поток : 6773 Кбит/сек
Дата кодирования : UTC 2018-02-10 00:05:25
Программа кодирования : mkvmerge v5.8.0 ('No Sleep / Pillow') built on Sep 2 2012 15:37:04
Библиотека кодирования : libebml v1.2.3 + libmatroska v1.3.0

Видео
Идентификатор : 1
Формат : AVC
Формат/Информация : Advanced Video Codec
Профиль формата : High@L4.1
Настройки формата : CABAC / 9 Ref Frames
Параметр CABAC формата : Да
Параметр RefFrames формата : 9 кадров
Идентификатор кодека : V_MPEG4/ISO/AVC
Продолжительность : 2 ч. 11 м.
Битрейт : 5749 Кбит/сек
Ширина : 1280 пикселей
Высота : 720 пикселей
Соотношение сторон : 16:9
Режим частоты кадров : Постоянный
Частота кадров : 23,976 (24000/1001) кадра/сек
Цветовое пространство : YUV
Субдискретизация насыщенности : 4:2:0
Битовая глубина : 8 бит
Тип развёртки : Прогрессивная
Бит/(Пиксели*Кадры) : 0.260
Размер потока : 5,16 Гбайт (83%)
Заголовок : RIP | MZMA
Библиотека кодирования : x264 core 152 r2851kMod ba24899
Настройки программы : cabac=1 / ref=9 / deblock=1:-3:-2 / analyse=0x3:0x113 / me=umh / subme=11 / psy=1 / fade_compensate=0.00 / psy_rd=0.90:0.05 / mixed_ref=1 / me_range=48 / chroma_me=1 / trellis=2 / 8x8dct=1 / cqm=0 / deadzone=21,11 / fast_pskip=0 / chroma_qp_offset=-3 / threads=6 / lookahead_threads=1 / sliced_threads=0 / nr=0 / decimate=0 / interlaced=0 / bluray_compat=0 / constrained_intra=0 / bframes=16 / b_pyramid=2 / b_adapt=2 / b_bias=0 / direct=3 / weightb=1 / open_gop=0 / weightp=2 / keyint=240 / keyint_min=23 / scenecut=40 / intra_refresh=0 / rc_lookahead=40 / rc=2pass / mbtree=0 / bitrate=5749 / ratetol=1.0 / qcomp=0.60 / qpmin=0 / qpmax=69 / qpstep=4 / cplxblur=20.0 / qblur=0.5 / vbv_maxrate=50000 / vbv_bufsize=62500 / nal_hrd=none / filler=0 / ip_ratio=1.25 / pb_ratio=1.30 / aq=3:0.90
Язык : English
Default : Да
Forced : Нет
Цветовой диапазон : Limited
Основные цвета : BT.709
Характеристики трансфера : BT.709
Коэффициенты матрицы : BT.709

Аудио #1
Идентификатор : 2
Формат : AC-3
Формат/Информация : Audio Coding 3
Идентификатор кодека : A_AC3
Продолжительность : 2 ч. 11 м.
Вид битрейта : Постоянный
Битрейт : 384 Кбит/сек
Каналы : 6 каналов
Расположение каналов : Front: L C R, Side: L R, LFE
Частота : 48,0 КГц
Частота кадров : 31,250 кадров/сек (1536 SPF)
Битовая глубина : 16 бит
Метод сжатия : С потерями
Задержка видео : 24 мс.
Размер потока : 362 Мбайт (6%)
Заголовок : MVO | Novamedia
Язык : Russian
По умолчанию : Да
Принудительно : Нет

Аудио #2
Идентификатор : 3
Формат : AC-3
Формат/Информация : Audio Coding 3
Идентификатор кодека : A_AC3
Продолжительность : 2 ч. 11 м.
Вид битрейта : Постоянный
Битрейт : 224 Кбит/сек
Каналы : 2 канала
Расположение каналов : Front: L R
Частота : 48,0 КГц
Частота кадров : 31,250 кадров/сек (1536 SPF)
Битовая глубина : 16 бит
Метод сжатия : С потерями
Размер потока : 211 Мбайт (3%)
Заголовок : PO | Н Буров
Язык : Russian
По умолчанию : Нет
Принудительно : Нет

Аудио #3
Идентификатор : 4
Формат : AC-3
Формат/Информация : Audio Coding 3
Идентификатор кодека : A_AC3
Продолжительность : 2 ч. 11 м.
Вид битрейта : Постоянный
Битрейт : 192 Кбит/сек
Каналы : 2 канала
Расположение каналов : Front: L R
Частота : 48,0 КГц
Частота кадров : 31,250 кадров/сек (1536 SPF)
Битовая глубина : 16 бит
Метод сжатия : С потерями
Размер потока : 181 Мбайт (3%)
Заголовок : VO
Язык : Russian
По умолчанию : Нет
Принудительно : Нет

Аудио #4
Идентификатор : 5
Формат : E-AC-3
Формат/Информация : Enhanced Audio Coding 3
Идентификатор кодека : A_EAC3
Продолжительность : 2 ч. 11 м.
Вид битрейта : Постоянный
Битрейт : 224 Кбит/сек
Каналы : 2 канала
Расположение каналов : Front: L R
Частота : 48,0 КГц
Частота кадров : 187,500 кадров/сек (256 SPF)
Метод сжатия : С потерями
Задержка видео : 8 мс.
Размер потока : 211 Мбайт (3%)
Заголовок : Original
Язык : English
По умолчанию : Нет
Принудительно : Нет

Текст
Идентификатор : 6
Формат : UTF-8
Идентификатор кодека : S_TEXT/UTF8
Идентификатор кодека/Информация : UTF-8 Plain Text
Заголовок : SDH
Язык : English
По умолчанию : Нет
Принудительно : Нет

Меню
00:00:00.000 : en:Chapter 01
00:03:10.007 : en:Chapter 02
00:15:30.287 : en:Chapter 03
00:22:33.647 : en:Chapter 04
00:30:18.047 : en:Chapter 05
00:43:13.215 : en:Chapter 06
00:46:41.087 : en:Chapter 07
00:54:04.127 : en:Chapter 08
01:00:38.207 : en:Chapter 09
01:07:49.487 : en:Chapter 10
01:18:59.447 : en:Chapter 11
01:28:48.647 : en:Chapter 12
01:32:37.847 : en:Chapter 13
01:44:35.807 : en:Chapter 14
01:55:46.495 : en:Chapter 15
02:07:57.535 : en:Chapter 16



Скачать Вердикт.Суд.над.МакМартинами.Indictment.The.McMartin.Trial.(Мик.Джексон).[1995.драма.криминал.триллер.реальные.события.WEB-DLRip].[720p].[MVO]+[VO]+[AVO]+[Оригинал.Eng]+[Sub.Eng].torrent без регистрации
Золото ЗОЛОТАЯ РАЗДАЧА! СКАЧАННОЕ НЕ ЗАСЧИТЫВАЕТСЯ! Золото
Дата: Зарегистрирован   [ Тип: внутренний ] Как тут cкачать?
MAGNET ссылка
MAGNET ссылка


Скачать .torrent

32 KB

Статус: проверено DHT
Скачан: торрент - 8 раз, раздача полностью - 0 раз
Размер: 6,23 GB
Оценка:  - (Голосов: 0)
Поблагодарили: 0
Поделиться ссылкой на эту раздачу с друзьями:
В контактеFacebookОдноклассникиTwitterLivejournalМой МирLiveinternet
 

 
Показать сообщения:    


Вы не можете начинать темы
Вы не можете отвечать на сообщения
Вы не можете редактировать свои сообщения
Вы не можете удалять свои сообщения
Вы не можете голосовать в опросах
Вы не можете прикреплять файлы к сообщениям
Вы можете скачивать файлы