Loading...
Error

Скачать Патруль времени / Timecop (Питер Хайамс) [1994, фантастика, боевик, BDRip] [1080p] [AVO (Яроцкий)]+[Оригинал Eng]+[Sub Eng] торрент без регистрации

Статистика раздачи
Размер:  8,09 GB   |    Скачан:  7 раз
Сидов:  1  [  0 KB/s  ]  
 
 
 
Автор Сообщение

Marsianka

[] 

Название: Патруль времени
Оригинальное название: Timecop
Год выхода: 1994
Жанр: фантастика, боевик
Режиссер: Питер Хайамс
В ролях: Жан-Клод Ван Дамм, Миа Сара, Рон Сильвер, Брюс МакГилл, Глория Рубен, Скотт Беллис, Джейсон Шомбинг, Скотт Лоуренс, Кеннет Уэлш, Брент Вулси
О фильме: Передвижения во времени породили новый тип преступлений. Можно изменять события прошлого, контролировать финансовые рынки и даже уничтожать целые народы. Правительство США создает специальное полицейское подразделение — патруль времени. Продажный сенатор, рвущийся к президентскому креслу, отправляется в прошлое, чтобы изменить ход истории. Вслед за ним отправляется полицейский Макс Уокер. Его ждет не только смертельная опасность, но и сильнейшее искушение, ведь, попав в прошлое, он может предотвратить смерть любимой жены.

Страна: Канада, США, Япония
Студия: Warner Bros. Pictures
Продолжительность: 01:37:55
Перевод: авторский (одноголосый)
Субтитры: английские (full)
Формат: MKV
Качество: BDRip 1080p
Видео: MPEG-4 AVC Video / 9912 kbps / 1920x816 / 23.976 fps

Russian: Dolby Digital Audio / 5.1 / 48 kHz / 448 kbps - Авторский (Яроцкий)
English: DTS Audio / 5.1 / 48 kHz / 1536 kbps - Оригинал (Английский)
Format : Matroska
Format version : Version 2
File size : 8.09 GiB
Duration : 1 h 37 min
Overall bit rate : 11.8 Mb/s
Movie name : Timecop (1994) BDRip 1080p
Encoded date : UTC 2018-03-18 12:10:46
Writing application : mkvmerge v4.9.1 ('Ich will') сборка от Jul 11 2011 23:53:15
Writing library : libebml v1.2.1 + libmatroska v1.1.1

Video
ID : 1
Format : AVC
Format/Info : Advanced Video Codec
Format profile : High@L4.1
Format settings, CABAC : Yes
Format settings, RefFrames : 4 frames
Codec ID : V_MPEG4/ISO/AVC
Duration : 1 h 37 min
Bit rate : 9 912 kb/s
Width : 1 920 pixels
Height : 816 pixels
Display aspect ratio : 2.35:1
Frame rate mode : Constant
Frame rate : 23.976 (24000/1001) FPS
Color space : YUV
Chroma subsampling : 4:2:0
Bit depth : 8 bits
Scan type : Progressive
Bits/(Pixel*Frame) : 0.264
Stream size : 6.59 GiB (81%)
Title : Патруль времени
Writing library : x264 core 104 r1713 c276662
Encoding settings : cabac=1 / ref=3 / deblock=1:-3:-3 / analyse=0x3:0x113 / me=umh / subme=10 / psy=1 / psy_rd=1.00:0.10 / mixed_ref=1 / me_range=32 / chroma_me=1 / trellis=2 / 8x8dct=1 / cqm=0 / deadzone=21,11 / fast_pskip=1 / chroma_qp_offset=-3 / threads=12 / sliced_threads=0 / nr=0 / decimate=1 / interlaced=0 / constrained_intra=0 / bframes=5 / b_pyramid=2 / b_adapt=2 / b_bias=0 / direct=1 / weightb=1 / open_gop=0 / weightp=2 / keyint=250 / keyint_min=2 / scenecut=0 / intra_refresh=0 / rc_lookahead=72 / rc=2pass / mbtree=1 / bitrate=9912 / ratetol=1.0 / qcomp=0.70 / qpmin=10 / qpmax=51 / qpstep=4 / cplxblur=20.0 / qblur=0.5 / vbv_maxrate=40000 / vbv_bufsize=40000 / ip_ratio=1.20 / aq=1:1.00 / nal_hrd=none
Language : English
Default : Yes
Forced : No

Audio #1
ID : 2
Format : AC-3
Format/Info : Audio Coding 3
Format settings, Endianness : Big
Codec ID : A_AC3
Duration : 1 h 37 min
Bit rate mode : Constant
Bit rate : 448 kb/s
Channel(s) : 6 channels
Channel positions : Front: L C R, Side: L R, LFE
Sampling rate : 48.0 kHz
Frame rate : 31.250 FPS (1536 SPF)
Bit depth : 16 bits
Compression mode : Lossy
Stream size : 314 MiB (4%)
Title : Яроцкий
Language : Russian
Service kind : Complete Main
Default : Yes
Forced : No

Audio #2
ID : 3
Format : DTS
Format/Info : Digital Theater Systems
Mode : 16
Format settings, Endianness : Big
Codec ID : A_DTS
Duration : 1 h 37 min
Bit rate mode : Constant
Bit rate : 1 510 kb/s
Channel(s) : 6 channels
Channel positions : Front: L C R, Side: L R, LFE
Sampling rate : 48.0 kHz
Frame rate : 93.750 FPS (512 SPF)
Bit depth : 24 bits
Compression mode : Lossy
Stream size : 1.03 GiB (13%)
Title : Оригинал
Language : English
Default : No
Forced : No

Text
ID : 4
Format : UTF-8
Codec ID : S_TEXT/UTF8
Codec ID/Info : UTF-8 Plain Text
Title : Full
Language : English
Default : No
Forced : No



Скачать Патруль.времени.Timecop.(Питер.Хайамс).[1994.фантастика.боевик.BDRip].[1080p].[AVO.(Яроцкий)]+[Оригинал.Eng]+[Sub.Eng].torrent без регистрации
Золото ЗОЛОТАЯ РАЗДАЧА! СКАЧАННОЕ НЕ ЗАСЧИТЫВАЕТСЯ! Золото
Дата: Зарегистрирован   [ Тип: внутренний ] Как тут cкачать?
MAGNET ссылка
MAGNET ссылка


Скачать .torrent

41 KB

Статус: проверено DHT
Скачан: торрент - 7 раз, раздача полностью - 4 раз
Размер: 8,09 GB
Оценка:  - (Голосов: 0)
Поблагодарили: 0
Поделиться ссылкой на эту раздачу с друзьями:
В контактеFacebookОдноклассникиTwitterLivejournalМой МирLiveinternet
 

 
Показать сообщения:    


Вы не можете начинать темы
Вы не можете отвечать на сообщения
Вы не можете редактировать свои сообщения
Вы не можете удалять свои сообщения
Вы не можете голосовать в опросах
Вы не можете прикреплять файлы к сообщениям
Вы можете скачивать файлы