Loading...
Error

Скачать И на камнях растут деревья (Кнут Андерсен, Станислав Ростоцкий) [1985, драма, приключения, DVDRip-AVC] торрент без регистрации

Статистика раздачи
Размер:  2,3 GB   |    Скачан:  14 раз
Сидов:  1  [  0 KB/s  ]  
 
 
 
Автор Сообщение

Marsianka

[] 

Информация о фильме
Название: И на камнях растут деревья
Год выхода: 1985
Жанр: драма, приключения
Режиссер: Кнут Андерсен, Станислав Ростоцкий
В ролях: Александр Тимошкин, Петронелла Баркер, Тор Стокке, Торгейр Фоннлид, Йон Андресен, Лисе Фьелдстад, Виктор Шульгин, Михаил Глузский, Пер Сундерланд, Валентина Титова, Василий Кравцов, Вера Панасенкова, Валерий Классен, Татьяна Сурначёва, Елена Озерцова, Николай Карпов, Валерий Лысенков, Арина Алейникова, Владимир Антоник, Любовь Германова, Александр Горбенко, Ольга Григорьева, Светлана Дирина, Алексей Золотницкий, Дмитрий Матвеев, Виктор Незнанов, Геннадий Петров, Владимир Пивоваров, Александр Андрусенко, Николай Маковский

О фильме: Славянский юноша Кукша, попавший в плен к викингам, за мужество и отвагу получает имя Эйнар Счастливый. Начинается новый период в его жизни, полный приключений и обещаемого викингами счастья. Но единственное его желание — вернуться домой…



Страна: СССР, Норвегия
Студия: Студия Горького, Norsk Film A/S, Совинфильм
Продолжительность: 02:17:45

Файл
Кодек: х264
Качество: DVDRip-AVC
Видео: MPEG-4 AVC, 716x480@763x480, 25 fps, 2002 Кбит/с
Звук: AC3, 6 ch, 384 Кбит/с

Общее
Уникальный идентификатор : 196894958364696404754005335079649041620 (0x942096F16CA873C9BB9AD20F785C5CD4)
Полное имя : И на камнях растут деревья_1985-DVDRip-AVC.mkv
Формат : Matroska
Размер файла : 2,30 Гбайт
Продолжительность : 2 ч. 17 м.
Общий поток : 2388 Кбит/сек
Дата кодирования : UTC 2017-07-24 04:23:49
Программа кодирования : mkvmerge v5.8.0 ('No Sleep / Pillow') built on Sep 2 2012 15:37:04
Библиотека кодирования : libebml v1.2.3 + libmatroska v1.3.0

Видео
Идентификатор : 1
Формат : AVC
Формат/Информация : Advanced Video Codec
Профиль формата : High@L4.1
Параметр CABAC формата : Да
Параметр ReFrames формата : 13 кадры
Идентификатор кодека : V_MPEG4/ISO/AVC
Продолжительность : 2 ч. 17 м.
Битрейт : 2002 Кбит/сек
Ширина : 716 пикс.
Высота : 480 пикс.
Соотношение сторон : 1,590
Соотношение сторон в оригинале : 1,591
Частота кадров : 25,000 кадр/сек
Цветовое пространство : YUV
Подвыборка цветности : 4:2:0
Битовая глубина : 8 бит
Тип развёртки : Прогрессивная
Бит/(Пиксели*Кадры) : 0.233
Размер потока : 1,88 Гбайт (82%)
Заголовок : korsar.tv
Библиотека кодирования : x264 core 148 r2744kMod b97ae06
Настройки программы : cabac=1 / ref=13 / deblock=1:-2:-2 / analyse=0x3:0x133 / me=umh / subme=10 / psy=1 / fade_compensate=0.00 / psy_rd=1.05:0.10 / mixed_ref=1 / me_range=32 / chroma_me=1 / trellis=2 / 8x8dct=1 / cqm=0 / deadzone=21,11 / fast_pskip=0 / chroma_qp_offset=-3 / threads=3 / lookahead_threads=1 / sliced_threads=0 / nr=0 / decimate=0 / interlaced=0 / bluray_compat=0 / constrained_intra=0 / bframes=10 / b_pyramid=2 / b_adapt=2 / b_bias=0 / direct=3 / weightb=1 / open_gop=0 / weightp=2 / keyint=250 / keyint_min=25 / scenecut=40 / intra_refresh=0 / rc=2pass / mbtree=0 / bitrate=2002 / ratetol=1.0 / qcomp=0.63 / qpmin=0 / qpmax=39 / qpstep=4 / cplxblur=20.0 / qblur=0.5 / ip_ratio=1.25 / pb_ratio=1.30 / aq=2:1.00
Язык : English
Основные цвета : BT.470-6 System B, BT.470-6 System G, BT.601-6 625, BT.1358 625, BT.1700 625 PAL, BT.1700 625 SECAM
Характеристики трансфера : BT.470-6 System B, BT.470-6 System G
Коэффициенты матрицы : BT.470-6 System B, BT.470-6 System G, BT.601-6 625, BT.1358 625, BT.1700 625 PAL, BT.1700 625 SECAM, IEC 61966-2-4 601

Аудио
Идентификатор : 2
Формат : AC-3
Формат/Информация : Audio Coding 3
Расширение режима : CM (complete main)
Идентификатор кодека : A_AC3
Продолжительность : 2 ч. 17 м.
Вид битрейта : Постоянный
Битрейт : 384 Кбит/сек
Канал(ы) : 6 канала(ов)
Расположение каналов : Front: L C R, Side: L R, LFE
Частота : 48,0 КГц
Битовая глубина : 16 бит
Метод сжатия : С потерями
Размер потока : 378 Мбайт (16%)
Язык : Russian
Релиз от:



Скачать И.на.камнях.растут.деревья.(Кнут.Андерсен.Станислав.Ростоцкий).[1985.драма.приключения.DVDRip-AVC].torrent без регистрации
Золото ЗОЛОТАЯ РАЗДАЧА! СКАЧАННОЕ НЕ ЗАСЧИТЫВАЕТСЯ! Золото
Дата: Зарегистрирован   [ Тип: внутренний ] Как тут cкачать?
MAGNET ссылка
MAGNET ссылка


Скачать .torrent

12 KB

Статус: проверено DHT
Скачан: торрент - 14 раз, раздача полностью - 2 раз
Размер: 2,3 GB
Оценка:  - (Голосов: 0)
Поблагодарили: 0
Поделиться ссылкой на эту раздачу с друзьями:
В контактеFacebookОдноклассникиTwitterLivejournalМой МирLiveinternet
 

 
Показать сообщения:    


Вы не можете начинать темы
Вы не можете отвечать на сообщения
Вы не можете редактировать свои сообщения
Вы не можете удалять свои сообщения
Вы не можете голосовать в опросах
Вы не можете прикреплять файлы к сообщениям
Вы можете скачивать файлы