Loading...
Error

Скачать Новогоднее похищение (Юрий Сааков) [1969, комедия, DVDRip-AVC] торрент без регистрации

Статистика раздачи
Размер:  3,66 GB   |    Скачан:  10 раз
Сидов:  1  [  0 KB/s  ]  
 
 
 
Автор Сообщение

Marsianka

[] 

Информация о фильме
Название: Новогоднее похищение
Год выхода: 1969
Жанр: комедия
Режиссер: Юрий Сааков
В ролях: Михаил Пуговкин, Олег Анофриев, Савелий Крамаров, Евгений Стеблов, Майя Плисецкая, Юрий Тимошенко, Евгений Березин, Татьяна Шмыга, Мария Миронова, Рина Зеленая

О фильме: В пожарной части готовятся к встрече Нового года. Трое активистов xудожественной самодеятельности решают поxитить для новогоднего концерта профессиональныx артистов. Капитан милиции расследует поxищение и выслушивает жалобы от «непоxищенныx» артистов.



Страна: СССР
Студия: ТО «Экран»
Продолжительность: 2x ~01:28:31

Файл
Кодек: х264
Качество: DVDRip-AVC
Видео #1: MPEG-4 AVC, 702x568@748x568, 25 fps, ~2699 Кбит/с
Видео #2: MPEG-4 AVC, 704x576@750x576, 25 fps, ~2483 Кбит/с
Звук #1: AC3, 2 ch, 384 Кбит/с
Звук #2: AC3, 2 ch, 256 Кбит/с

x264 [info]: frame I:710 Avg QP:17.44 size: 75289
x264 [info]: frame P:30639 Avg QP:19.15 size: 34550
x264 [info]: frame B:101430 Avg QP:21.46 size: 7098

Общее
Уникальный идентификатор : 241420514755822462026771709108928030878 (0xB59FE65CF27C7B0B819FD41EFE7EA89E)
Полное имя : C:Новогоднее похищение_1969-DVDRip-AVC_KORSARНовогоднее похищение-1.mkv
Формат : Matroska
Размер файла : 1,94 Гбайт
Продолжительность : 1 ч. 28 м.
Общий поток : 3145 Кбит/сек
Название фильма : Новогоднее похищение_1969-DVDRip-AVC_KORSAR
Дата кодирования : UTC 2017-12-11 14:38:12
Программа кодирования : mkvmerge v5.8.0 ('No Sleep / Pillow') built on Sep 2 2012 15:37:04
Библиотека кодирования : libebml v1.2.3 + libmatroska v1.3.0

Видео
Идентификатор : 1
Формат : AVC
Формат/Информация : Advanced Video Codec
Профиль формата : High@L4.1
Параметр CABAC формата : Да
Параметр ReFrames формата : 15 кадры
Параметры GOP формата : M=4, N=38
Идентификатор кодека : V_MPEG4/ISO/AVC
Продолжительность : 1 ч. 28 м.
Битрейт : 2699 Кбит/сек
Ширина : 702 пикс.
Высота : 568 пикс.
Соотношение сторон : 4:3
Соотношение сторон в оригинале : 4:3
Частота кадров : 25,000 кадр/сек
Цветовое пространство : YUV
Подвыборка цветности : 4:2:0
Битовая глубина : 8 бит
Тип развёртки : Прогрессивная
Бит/(Пиксели*Кадры) : 0.271
Размер потока : 1,67 Гбайт (86%)
Библиотека кодирования : x264 core 148 r2744kMod b97ae06
Настройки программы : cabac=1 / ref=15 / deblock=1:-2:-1 / analyse=0x3:0x133 / me=umh / subme=10 / psy=1 / fade_compensate=0.00 / psy_rd=1.05:0.10 / mixed_ref=1 / me_range=40 / chroma_me=1 / trellis=2 / 8x8dct=1 / cqm=0 / deadzone=21,11 / fast_pskip=1 / chroma_qp_offset=-3 / threads=12 / lookahead_threads=3 / sliced_threads=0 / nr=0 / decimate=1 / interlaced=0 / bluray_compat=0 / constrained_intra=0 / bframes=10 / b_pyramid=2 / b_adapt=2 / b_bias=0 / direct=1 / weightb=1 / open_gop=0 / weightp=2 / keyint=240 / keyint_min=24 / scenecut=40 / intra_refresh=0 / rc=crf / mbtree=0 / crf=17.3000 / qcomp=0.60 / qpmin=0 / qpmax=39 / qpstep=4 / ip_ratio=1.40 / pb_ratio=1.30 / aq=1:0.90
Язык : English
Основные цвета : BT.470-6 System B, BT.470-6 System G, BT.601-6 625, BT.1358 625, BT.1700 625 PAL, BT.1700 625 SECAM
Характеристики трансфера : BT.470-6 System B, BT.470-6 System G
Коэффициенты матрицы : BT.470-6 System B, BT.470-6 System G, BT.601-6 625, BT.1358 625, BT.1700 625 PAL, BT.1700 625 SECAM, IEC 61966-2-4 601

Аудио
Идентификатор : 2
Формат : AC-3
Формат/Информация : Audio Coding 3
Расширение режима : CM (complete main)
Идентификатор кодека : A_AC3
Продолжительность : 1 ч. 28 м.
Вид битрейта : Постоянный
Битрейт : 384 Кбит/сек
Канал(ы) : 2 канала(ов)
Расположение каналов : Front: L R
Частота : 48,0 КГц
Битовая глубина : 16 бит
Метод сжатия : С потерями
Размер потока : 243 Мбайт (12%)
Язык : Russian

Меню
00:00:00.000 : en:Chapter 1
00:04:20.160 : en:Chapter 2
00:09:03.360 : en:Chapter 3
00:14:02.040 : en:Chapter 4
00:18:33.000 : en:Chapter 5
00:23:24.120 : en:Chapter 6
00:28:00.600 : en:Chapter 7
00:32:30.960 : en:Chapter 8
00:37:21.480 : en:Chapter 9
00:41:52.320 : en:Chapter 10
00:46:21.720 : en:Chapter 11
00:51:02.880 : en:Chapter 12
00:55:36.840 : en:Chapter 13
01:00:09.000 : en:Chapter 14
01:04:38.040 : en:Chapter 15
01:09:29.160 : en:Chapter 16
01:14:06.240 : en:Chapter 17
01:18:51.120 : en:Chapter 18
01:23:38.160 : en:Chapter 19

Общее
Уникальный идентификатор : 238877961198537287529409565913247283958 (0xB3B638CB55B873518BD55827173A7AF6)
Полное имя : C:Новогоднее похищение_1969-DVDRip-AVC_KORSARНовогоднее похищение-2.mkv
Формат : Matroska
Размер файла : 1,71 Гбайт
Продолжительность : 1 ч. 27 м.
Общий поток : 2795 Кбит/сек
Название фильма : Новогоднее похищение_1969-DVDRip-AVC_KORSAR
Дата кодирования : UTC 2017-12-11 14:40:43
Программа кодирования : mkvmerge v5.8.0 ('No Sleep / Pillow') built on Sep 2 2012 15:37:04
Библиотека кодирования : libebml v1.2.3 + libmatroska v1.3.0

Видео
Идентификатор : 1
Формат : AVC
Формат/Информация : Advanced Video Codec
Профиль формата : High@L4.1
Параметр CABAC формата : Да
Параметр ReFrames формата : 15 кадры
Параметры GOP формата : M=10, N=12
Идентификатор кодека : V_MPEG4/ISO/AVC
Продолжительность : 1 ч. 27 м.
Битрейт : 2483 Кбит/сек
Ширина : 704 пикс.
Высота : 576 пикс.
Соотношение сторон : 4:3
Соотношение сторон в оригинале : 4:3
Частота кадров : 25,000 кадр/сек
Стандарт вещания : PAL
Цветовое пространство : YUV
Подвыборка цветности : 4:2:0
Битовая глубина : 8 бит
Тип развёртки : Прогрессивная
Бит/(Пиксели*Кадры) : 0.245
Размер потока : 1,52 Гбайт (89%)
Библиотека кодирования : x264 core 148 r2744kMod b97ae06
Настройки программы : cabac=1 / ref=15 / deblock=1:-2:-1 / analyse=0x3:0x133 / me=umh / subme=10 / psy=1 / fade_compensate=0.00 / psy_rd=1.05:0.10 / mixed_ref=1 / me_range=40 / chroma_me=1 / trellis=2 / 8x8dct=1 / cqm=0 / deadzone=21,11 / fast_pskip=1 / chroma_qp_offset=-3 / threads=12 / lookahead_threads=3 / sliced_threads=0 / nr=0 / decimate=1 / interlaced=0 / bluray_compat=0 / constrained_intra=0 / bframes=10 / b_pyramid=2 / b_adapt=2 / b_bias=0 / direct=1 / weightb=1 / open_gop=0 / weightp=2 / keyint=240 / keyint_min=24 / scenecut=40 / intra_refresh=0 / rc=crf / mbtree=0 / crf=17.3000 / qcomp=0.60 / qpmin=0 / qpmax=39 / qpstep=4 / ip_ratio=1.40 / pb_ratio=1.30 / aq=1:0.90
Язык : English
Основные цвета : BT.470-6 System B, BT.470-6 System G, BT.601-6 625, BT.1358 625, BT.1700 625 PAL, BT.1700 625 SECAM
Характеристики трансфера : BT.470-6 System B, BT.470-6 System G
Коэффициенты матрицы : BT.470-6 System B, BT.470-6 System G, BT.601-6 625, BT.1358 625, BT.1700 625 PAL, BT.1700 625 SECAM, IEC 61966-2-4 601

Аудио
Идентификатор : 2
Формат : AC-3
Формат/Информация : Audio Coding 3
Расширение режима : CM (complete main)
Идентификатор кодека : A_AC3
Продолжительность : 1 ч. 27 м.
Вид битрейта : Постоянный
Битрейт : 256 Кбит/сек
Канал(ы) : 2 канала(ов)
Расположение каналов : Front: L R
Частота : 48,0 КГц
Битовая глубина : 16 бит
Метод сжатия : С потерями
Размер потока : 161 Мбайт (9%)
Язык : Russian

Меню
00:00:00.000 : en:Chapter 1
00:09:34.040 : en:Chapter 2
00:22:11.960 : en:Chapter 3
00:29:34.040 : en:Chapter 4
00:39:34.040 : en:Chapter 5
00:49:34.040 : en:Chapter 6
00:59:34.040 : en:Chapter 7
01:09:34.040 : en:Chapter 8
01:19:34.040 : en:Chapter 9
Релиз от:



Скачать Новогоднее.похищение.(Юрий.Сааков).[1969.комедия.DVDRip-AVC].torrent без регистрации
Золото ЗОЛОТАЯ РАЗДАЧА! СКАЧАННОЕ НЕ ЗАСЧИТЫВАЕТСЯ! Золото
Дата: Зарегистрирован   [ Тип: внутренний ] Как тут cкачать?
MAGNET ссылка
MAGNET ссылка


Скачать .torrent

19 KB

Статус: проверено DHT
Скачан: торрент - 10 раз, раздача полностью - 12 раз
Размер: 3,66 GB
Оценка:  - (Голосов: 0)
Поблагодарили: 0
Поделиться ссылкой на эту раздачу с друзьями:
В контактеFacebookОдноклассникиTwitterLivejournalМой МирLiveinternet
 

 
Показать сообщения:    


Вы не можете начинать темы
Вы не можете отвечать на сообщения
Вы не можете редактировать свои сообщения
Вы не можете удалять свои сообщения
Вы не можете голосовать в опросах
Вы не можете прикреплять файлы к сообщениям
Вы можете скачивать файлы